Классический форум-трекер
canvas not supported
Нас вместе: 4 095 125

Псы 2: Последняя кровь / Psy 2: Ostatnia krew (1994) DVD5


 
 
RSS
Начать новую тему   Ответить на тему    Торрент-трекер NNM-Club -> Зарубежное кино -> Зарубежные Фильмы (DVD)
Автор Сообщение
SKVSM ®
Покровитель талантов
Uploader 100+
 
Стаж: 9 лет 4 мес.
Сообщений: 1085
Ratio: 298,025
Поблагодарили: 21491
100%
nnm-club.gif
Псы 2: Последняя кровь / Psy 2: Ostatnia krew (1994) DVD5
Год выпуска: 1994
Жанр: Боевик, Криминал
Производство: Польша

Описание:
Прошло четыре года после событий фильма "Псы". Освободившийся из заключения Франц Маурэр встречается со своим старым знакомым Радославом Вольфом, который вернулся в Польшу с войны в бывшей Югославии. У них появляется возможность хорошо заработать на крупной сделке с оружием для Сараева. Вольф, Маурэр и переведенный в регулировщики "Новый" рискуют жизнью, получая деньги от русской мафии. К тому же этим делом заинтересовалась и полиция...
Режиссер: Владислав Пасиковский
Актеры: Богуслав Линда, Цезары Пазура, Артур Жмиевски, Магдалена Дандуриан, Валерий Приёмыхов, Сергей Шакуров, Петр Зайченко, Александр Беднаж, Эдвард Линде-Любашенко, Ян Махульский
Продолжительность: 01:38:53
Перевод: Многоголосый закадровый
Язык субтитров: Русский, Польский
Качество видео: DVD5
Дополнительно: Галерея фото, смотрите на DVD

Дата мировой премьеры: 5 апреля 1994
Ограничения: 18+
Видеокодек: MPEG-2
Битрейт видео: ~ 4525 Кбит/с
Размер кадра: PAL 4:3 (720x576) VBR
Аудио:
#1: AC3, 6 ch, 448 Кбит/с (Русский)
#2: AC3, 2 ch, 192 Кбит/с (Русский)
#3: AC3, 6 ch, 448 Кбит/с (Польский)
#4: AC3, 2 ch, 192 Кбит/с (Польский)
Код: выделить все
Title:
Psy 2.Ostatnia krew.1994.DVD-5Size: 4.35 Gb ( 4 557 154 KBytes ) - DVD-5
Enabled regions: 1, 2, 3, 4, 5, 6, 8

VTS_01 :
  Play Length: 01:38:53
  Video: PAL 4:3 (720x576) VBR
  Audio:
      Russian (Dolby AC3, 6 ch)
      Russian (Dolby AC3, 2 ch)
      Polish (Dolby AC3, 6 ch)
      Polish (Dolby AC3, 2 ch)
  Subtitles:
      Russian
      Russian
      Polish

VTS_02 :
  Play Length: 00:01:10
  Video: PAL 4:3 (720x576) VBR
  Subtitles:
      Polish

VTS_03 :
  Play Length:
  Video: PAL 4:3 (720x576) VBR
  Audio:
      Polish (Dolby AC3, 2 ch)

Menu Video:
      PAL 4:3 (720x576) VBR
Menu Audio:
      Not specified (Dolby AC3, 2 ch)
Menu Subtitles:
      Not specified
Menu Polish Language Unit :
      Root Menu
      Chapter (PTT) Menu
Audio #1: AC3, 3/2+LFE ch, 448Kbps, Delay 0 mSec
Audio #2: AC3, 2/0 ch, 192Kbps, Delay 0 mSec
Audio #3: AC3, 3/2+LFE ch, 448Kbps, Delay 0 mSec
Audio #4: AC3, 2/0 ch, 192Kbps, Delay 0 mSec
Код: выделить все
Общее
Полное имя                       : F:\Psy 2.Ostatnia krew.1994.DVD-5\VIDEO_TS\VTS_01_1.VOB
Формат                           : MPEG-PS
Размер файла                     : 1024 Мбайт
Продолжительность                : 24 м.
Общий поток                      : 5923 Кбит/сек

Видео
Идентификатор                    : 224 (0xE0)
Формат                           : MPEG Video
Версия формата                   : Version 2
Профиль формата                  : Main@Main
Параметр BVOP формата            : Да
Параметр матрицы формата         : По умолчанию
Параметры GOP формата            : M=3, N=12
Продолжительность                : 24 м.
Вид битрейта                     : Переменный
Битрейт                          : 4525 Кбит/сек
Ширина                           : 720 пикс.
Высота                           : 576 пикс.
Соотношение сторон               : 4:3
Частота кадров                   : 25,000 кадр/сек
Стандарт вещания                 : PAL
Цветовое пространство            : YUV
Подвыборка цветности             : 4:2:0
Битовая глубина                  : 8 бит
Тип развёртки                    : Чересстрочная
Порядок развёртки                : Верхнее поле первое
Метод сжатия                     : С потерями
Бит/(Пиксели*Кадры)              : 0.436
Размер потока                    : 782 Мбайт (76%)

Аудио #1
Идентификатор                    : 128 (0x80)
Формат                           : AC-3
Формат/Информация                : Audio Coding 3
Расширение режима                : CM (complete main)
Продолжительность                : 24 м.
Вид битрейта                     : Постоянный
Битрейт                          : 448 Кбит/сек
Канал(ы)                         : 6 канала(ов)
Расположение каналов             : Front: L C R, Side: L R, LFE
Частота                          : 48,0 КГц
Битовая глубина                  : 16 бит
Метод сжатия                     : С потерями
Задержка видео                   : -80 мс.
Размер потока                    : 77,4 Мбайт (8%)

Аудио #2
Идентификатор                    : 129 (0x81)
Формат                           : AC-3
Формат/Информация                : Audio Coding 3
Расширение режима                : CM (complete main)
Продолжительность                : 24 м.
Вид битрейта                     : Постоянный
Битрейт                          : 192 Кбит/сек
Канал(ы)                         : 2 канала(ов)
Расположение каналов             : Front: L R
Частота                          : 48,0 КГц
Битовая глубина                  : 16 бит
Метод сжатия                     : С потерями
Задержка видео                   : -80 мс.
Размер потока                    : 33,2 Мбайт (3%)

Аудио #3
Идентификатор                    : 130 (0x82)
Формат                           : AC-3
Формат/Информация                : Audio Coding 3
Расширение режима                : CM (complete main)
Продолжительность                : 24 м.
Вид битрейта                     : Постоянный
Битрейт                          : 448 Кбит/сек
Канал(ы)                         : 6 канала(ов)
Расположение каналов             : Front: L C R, Side: L R, LFE
Частота                          : 48,0 КГц
Битовая глубина                  : 16 бит
Метод сжатия                     : С потерями
Задержка видео                   : -80 мс.
Размер потока                    : 77,4 Мбайт (8%)

Аудио #4
Идентификатор                    : 131 (0x83)
Формат                           : AC-3
Формат/Информация                : Audio Coding 3
Расширение режима                : CM (complete main)
Продолжительность                : 24 м.
Вид битрейта                     : Постоянный
Битрейт                          : 192 Кбит/сек
Канал(ы)                         : 2 канала(ов)
Расположение каналов             : Front: L R
Частота                          : 48,0 КГц
Битовая глубина                  : 16 бит
Метод сжатия                     : С потерями
Задержка видео                   : -80 мс.
Размер потока                    : 33,2 Мбайт (3%)

Текст #1
Идентификатор                    : 32 (0x20)
Формат                           : RLE
Формат/Информация                : Run-length encoding
Задержка видео                   : 1 с. 560 мс.

Текст #2
Идентификатор                    : 33 (0x21)
Формат                           : RLE
Формат/Информация                : Run-length encoding
Задержка видео                   : 1 с. 560 мс.

Меню
Скриншоты:



Время раздачи: 24/7 - круглосуточно
Скачать Псы / Psy (1992) DVD5
[NNM-Club.ru] Psy 2.Ostatnia krew.1994.DVD-5.torrent
 Торрент: Платиновая раздача  Зарегистрирован
 
Скачать


Примагнититься
 Зарегистрирован:   22 Ноя 2019 12:25:17
 Размер:   4,35 GB  (
 Рейтинг:   4,7 (Голосов: 36)
 Поблагодарили:   126
 Проверка:   Оформление проверено модератором 22 Ноя 2019 13:05:02
Как cкачать  ·  Как раздать  ·  Правильно оформить  ·  Поднять ратио!  
NorthOn
 
Админ
Стаж: 13 лет 6 мес.
Сообщений: 13325
Ratio: 1096,12
Поблагодарили: 14454
100%
nnm-club.gif
Торрент обновлен в рамках акции Включаем DHT в древних раздачах
Теперь вам нужно его скачать и открыть в торрент-клиенте, указав в качестве места сохранения раздаваемый файл или папку.

_________________
Либо я найду путь, либо проложу его...
javaga
Стаж: 7 лет 5 мес.
Сообщений: 625
Ratio: 10,844
Раздал: 9,787 TB
Поблагодарили: 637
100%
Откуда: Россия
russia.gif
филателист на обложке?

_________________
AMD 8150, RX570-8, 12 GB RAM, W7x64, PS2, PS3, PS4, PSV, PSP, NWii, N3DS, NSW
Показать сообщения:   
Начать новую тему   Ответить на тему    Торрент-трекер NNM-Club -> Зарубежное кино -> Зарубежные Фильмы (DVD) Часовой пояс: GMT + 3
Страница 1 из 1