Классический форум-трекер
canvas not supported
Нас вместе: 4 076 949

Сборник мультфильмов Гарри Бардина (Адажио, Банкет, Бравый инспектор Мамочкин, Брак, Брэк, Веселая карусель, Выкрутасы, Достать до неба, Летучий корабль, Пиф-паф, ой-ой-ой, Серый волк энд Красная Шапочка и др.) (1975-2004) DVDRip


Страницы:  1, 2  След. 
 
RSS
Начать новую тему   Ответить на тему    Торрент-трекер NNM-Club -> Мультфильмы -> Отечественные Мультфильмы (HD*Rip/LQ, DVDRip, SATRip, VHSRip)
Автор Сообщение
almikl ®
Куратор Детского.
Модератор Видео.
RG Всё лучшее - детям!
Uploader 500+
 
Стаж: 12 лет 2 мес.
Сообщений: 4667
Ratio: 329,578
Поблагодарили: 104383
100%
Откуда: Дааалекое Подмосковье
russia.gif
Сборник мультфильмов Гарри Бардина (1975-2004) DVDRip
Жанр: Рисованная анимация, Детский

Режиссер: Гарри Бардин

Качество видео: DVDRip

Видеокодек: В основном DivX 5
Битрейт видео: ~1614 Кбит/сек
Размер кадра: В основном 640х480
Аудиокодек: AC3 2.0
Битрейт аудио: 192 Кбит/сек
2000г., реж. Гарри Бардин, 00:09:41
Философская притча, рассказывающая о серой толпе, которая не знает и не хочет знать своей истории. Нетерпимость к чужому мнению, к чужой конфессии, к другому цвету кожи — причина возникновения конфликтов в сегодняшнем мире.
Общее
Полное имя : Адажио.avi
Формат : AVI
Формат/Информация : Audio Video Interleave
Размер файла : 126 Мегабайт
Продолжительность : 9 м. 41 с.
Общий поток : 1815 Кбит/сек
Фильм : Адажио
Режиссёр : Гарри Бардин
Программа кодирования : VirtualDubMod 1.5.10.2 (build 2540/release)
Формат оригинала/Имя : Cartoon
Примечание : DVDrip by tiss
Видео
Идентификатор : 0
Формат : MPEG-4 Visual
Параметры BVOP формата : Да
Параметры QPel формата : Нет
Параметры GMC формата : Без точки перехода
Параметры матрицы формата : Default (H.263)
Режим смешивания : Сжатый битовый поток
Идентификатор кодека : DX50
Идентификатор кодека/Подсказка : DivX 5
Продолжительность : 9 м. 41 с.
Битрейт : 1614 Кбит/сек
Ширина : 640 пикс.
Высота : 480 пикс.
Соотношение кадра : 4:3
Частота кадров : 25,000 кадр/сек
Разрешение : 8 бит
Колориметрия : 4:2:0
Тип развёртки : Прогрессивная
Бит/(Пиксели*Кадры) : 0.210
Размер потока : 112 Мегабайт (89%)
Библиотека кодирования : DivX 5.2.1 (WaffleDay) (UTC 2004-09-08)
Аудио
Идентификатор : 1
Формат : AC-3
Формат/Информация : Audio Coding 3
Идентификатор кодека : 2000
Продолжительность : 9 м. 40 с.
Вид битрейта : Постоянный
Битрейт : 192 Кбит/сек
Канал(ы) : 2 канала(ов)
Расположение каналов : L R
Частота : 48,0 КГц
Размер потока : 13,3 Мегабайт (11%)
Выравнивание : Разделение по промежуткам
Продолжительность промежутка : 40 мс. (1,00 видеокадр)
Время предзагрузки промежутка : 500 ms
Скриншоты:
Описание:1986г., 00:09:30
Фильм посвящен борьбе с пьянством. В поле зрения автора и режиссера типичный и распространенный случай из повседневной жизни — застолье по поводу Дня рождения. Герои фильма присутствуют незримо, их действия выражаются через предметы и звуковой ряд.
Общее
Полное имя :Банкет.AVI
Формат : AVI
Формат/Информация : Audio Video Interleave
Размер файла : 123 Мегабайт
Продолжительность : 9 м. 30 с.
Общий поток : 1807 Кбит/сек
Фильм : Банкет
Режиссёр : Гарри Бардин
Программа кодирования : VirtualDubMod 1.5.10.2 (build 2540/release)
Формат оригинала/Имя : Cartoon
Примечание : DVDrip by tiss
Видео
Идентификатор : 0
Формат : MPEG-4 Visual
Параметры BVOP формата : Да
Параметры QPel формата : Нет
Параметры GMC формата : Без точки перехода
Параметры матрицы формата : Default (H.263)
Режим смешивания : Сжатый битовый поток
Идентификатор кодека : DX50
Идентификатор кодека/Подсказка : DivX 5
Продолжительность : 9 м. 30 с.
Битрейт : 1606 Кбит/сек
Ширина : 640 пикс.
Высота : 480 пикс.
Соотношение кадра : 4:3
Частота кадров : 25,000 кадр/сек
Разрешение : 8 бит
Колориметрия : 4:2:0
Тип развёртки : Прогрессивная
Бит/(Пиксели*Кадры) : 0.209
Размер потока : 109 Мегабайт (89%)
Библиотека кодирования : DivX 5.2.1 (WaffleDay) (UTC 2004-09-08)
Аудио
Идентификатор : 1
Формат : AC-3
Формат/Информация : Audio Coding 3
Идентификатор кодека : 2000
Продолжительность : 9 м. 28 с.
Вид битрейта : Постоянный
Битрейт : 192 Кбит/сек
Канал(ы) : 2 канала(ов)
Расположение каналов : L R
Частота : 48,0 КГц
Размер потока : 13,0 Мегабайт (11%)
Выравнивание : Разделение по промежуткам
Продолжительность промежутка : 40 мс. (1,00 видеокадр)
Время предзагрузки промежутка : 500 ms
Скриншоты:
Описание: 1977г., 00:07:14
Как инспектор ГАИ Мамочкин наказал нарушителя общественного спокойствия.
General
Complete name : Бравый инспектор Мамочкин.avi
Format : AVI
Format/Info : Audio Video Interleave
File size : 97.7 MiB
Duration : 7mn 14s
Overall bit rate : 1 888 Kbps
Video
Format : MPEG-4 Visual
Format profile : Streaming Video@L1
Format settings, BVOP : Yes
Format settings, QPel : No
Format settings, GMC : No warppoints
Format settings, Matrix : Default
Muxing mode : Packed bitstream
Codec ID : XVID
Codec ID/Hint : XviD
Duration : 7mn 13s
Bit rate : 1 657 Kbps
Width : 704 pixels
Height : 528 pixels
Display aspect ratio : 4/3
Frame rate : 25.000 fps
Resolution : 24 bits
Colorimetry : 4:2:0
Scan type : Progressive
Bits/(Pixel*Frame) : 0.178
Stream size : 85.7 MiB (88%)
Writing library : XviD 50
Audio
Format : AC-3
Format/Info : Audio Coding 3
Codec ID : 2000
Duration : 7mn 14s
Bit rate mode : Constant
Bit rate : 224 Kbps
Channel(s) : 2 channels
Channel positions : L R
Sampling rate : 48.0 KHz
Stream size : 11.6 MiB (12%)
Alignment : Split accross interleaves
Interleave, duration : 72 ms (1.80 video frames)
Скриншоты:
[align=center]
1987г., 00:09:49
История знакомства, любви, женитьбы и семейной жизни, рассказанная при помощи двух веревок.
Общее
Полное имя : Брак.avi
Формат : AVI
Формат/Информация : Audio Video Interleave
Размер файла : 128 Мегабайт
Продолжительность : 9 м. 49 с.
Общий поток : 1815 Кбит/сек
Фильм : Брак
Режиссёр : Гарри Бардин
Программа кодирования : VirtualDubMod 1.5.10.2 (build 2540/release)
Формат оригинала/Имя : Cartoon
Примечание : DVDrip by tiss
Видео
Идентификатор : 0
Формат : MPEG-4 Visual
Параметры BVOP формата : Да
Параметры QPel формата : Нет
Параметры GMC формата : Без точки перехода
Параметры матрицы формата : Default (H.263)
Режим смешивания : Сжатый битовый поток
Идентификатор кодека : DX50
Идентификатор кодека/Подсказка : DivX 5
Продолжительность : 9 м. 49 с.
Битрейт : 1614 Кбит/сек
Ширина : 640 пикс.
Высота : 480 пикс.
Соотношение кадра : 4:3
Частота кадров : 25,000 кадр/сек
Разрешение : 8 бит
Колориметрия : 4:2:0
Тип развёртки : Прогрессивная
Бит/(Пиксели*Кадры) : 0.210
Размер потока : 113 Мегабайт (89%)
Библиотека кодирования : DivX 5.2.1 (WaffleDay) (UTC 2004-09-08)
Аудио
Идентификатор : 1
Формат : AC-3
Формат/Информация : Audio Coding 3
Идентификатор кодека : 2000
Продолжительность : 9 м. 47 с.
Вид битрейта : Постоянный
Битрейт : 192 Кбит/сек
Канал(ы) : 2 канала(ов)
Расположение каналов : L R
Частота : 48,0 КГц
Размер потока : 13,4 Мегабайт (11%)
Выравнивание : Разделение по промежуткам
Продолжительность промежутка : 40 мс. (1,00 видеокадр)
Время предзагрузки промежутка : 500 ms
1985г., 00:09:57
Фильм направлен против жестокости профессионального бокса. В музыкально-пародийной форме в нем высмеиваются недостойные приемы и средства, применяемые ради достижения победы.
Общее
Полное имя : Брэк.avi
Формат : AVI
Формат/Информация : Audio Video Interleave
Размер файла : 130 Мегабайт
Продолжительность : 9 м. 57 с.
Общий поток : 1821 Кбит/сек
Фильм : Брэк
Режиссёр : Гарри Бардин
Программа кодирования : VirtualDubMod 1.5.10.2 (build 2540/release)
Формат оригинала/Имя : Cartoon
Примечание : DVDrip by tiss
Видео
Идентификатор : 0
Формат : MPEG-4 Visual
Параметры BVOP формата : Да
Параметры QPel формата : Нет
Параметры GMC формата : Без точки перехода
Параметры матрицы формата : Default (H.263)
Режим смешивания : Сжатый битовый поток
Идентификатор кодека : DX50
Идентификатор кодека/Подсказка : DivX 5
Продолжительность : 9 м. 57 с.
Битрейт : 1620 Кбит/сек
Ширина : 640 пикс.
Высота : 480 пикс.
Соотношение кадра : 4:3
Частота кадров : 25,000 кадр/сек
Разрешение : 8 бит
Колориметрия : 4:2:0
Тип развёртки : Прогрессивная
Бит/(Пиксели*Кадры) : 0.211
Размер потока : 115 Мегабайт (89%)
Библиотека кодирования : DivX 5.2.1 (WaffleDay) (UTC 2004-09-08)
Аудио
Идентификатор : 1
Формат : AC-3
Формат/Информация : Audio Coding 3
Идентификатор кодека : 2000
Продолжительность : 9 м. 55 с.
Вид битрейта : Постоянный
Битрейт : 192 Кбит/сек
Канал(ы) : 2 канала(ов)
Расположение каналов : L R
Частота : 48,0 КГц
Размер потока : 13,6 Мегабайт (11%)
Выравнивание : Разделение по промежуткам
Продолжительность промежутка : 40 мс. (1,00 видеокадр)
Время предзагрузки промежутка : 500 ms
1976г., 00:04:00
О том, как нехорошо мучить животных.
Общее
Полное имя : Веселая карусель №8.avi
Формат : AVI
Формат/Информация : Audio Video Interleave
Размер файла : 73,7 Мегабайт
Продолжительность : 8 м. 34 с.
Общий поток : 1202 Кбит/сек
Режиссёр : TVrip.by.Ludmila
Программа кодирования : VirtualDubMod 1.4.13
Библиотека кодирования : VirtualDub build 14328/release
Видео
Идентификатор : 0
Формат : MPEG-4 Visual
Параметры BVOP формата : Да
Параметры QPel формата : Нет
Параметры GMC формата : Без точки перехода
Параметры матрицы формата : Default (H.263)
Режим смешивания : Сжатый битовый поток
Идентификатор кодека : DX50
Идентификатор кодека/Подсказка : DivX 5
Продолжительность : 8 м. 34 с.
Битрейт : 1064 Кбит/сек
Ширина : 512 пикс.
Высота : 384 пикс.
Соотношение кадра : 4:3
Частота кадров : 25,000 кадр/сек
Разрешение : 8 бит
Колориметрия : 4:2:0
Тип развёртки : Прогрессивная
Бит/(Пиксели*Кадры) : 0.217
Размер потока : 65,2 Мегабайт (89%)
Библиотека кодирования : DivX 5.0.5 (UTC 2003-04-24)
Аудио
Идентификатор : 1
Формат : MPEG Audio
Версия формата : Version 1
Профайл формата : Layer 3
Идентификатор кодека : 55
Идентификатор кодека/Подсказка : MP3
Продолжительность : 8 м. 34 с.
Вид битрейта : Постоянный
Битрейт : 128 Кбит/сек
Канал(ы) : 1 канал
Частота : 44,1 КГц
Размер потока : 7,84 Мегабайт (11%)
Выравнивание : Разделение по промежуткам
Продолжительность промежутка : 40 мс. (1,00 видеокадр)
Время предзагрузки промежутка : 39 ms
Библиотека кодирования : LAME3.93
Настройки программы : -m m -V 4 -q 5 -lowpass 20.1 -b 128
1988г., 00:09:48
История проволочного человека, который защиту себя от окружающих довел до абсурда, переделав жену, собаку в колючую проволоку, и отгородил себя от окружающего мира.
Общее
Полное имя : Выкрутасы.avi
Формат : AVI
Формат/Информация : Audio Video Interleave
Размер файла : 128 Мегабайт
Продолжительность : 9 м. 48 с.
Общий поток : 1820 Кбит/сек
Фильм : Выкрутасы
Режиссёр : Гарри Бардин
Программа кодирования : VirtualDubMod 1.5.10.2 (build 2540/release)
Формат оригинала/Имя : Cartoon
Примечание : DVDrip by tiss
Видео
Идентификатор : 0
Формат : MPEG-4 Visual
Параметры BVOP формата : Да
Параметры QPel формата : Нет
Параметры GMC формата : Без точки перехода
Параметры матрицы формата : Default (H.263)
Режим смешивания : Сжатый битовый поток
Идентификатор кодека : DX50
Идентификатор кодека/Подсказка : DivX 5
Продолжительность : 9 м. 48 с.
Битрейт : 1618 Кбит/сек
Ширина : 640 пикс.
Высота : 480 пикс.
Соотношение кадра : 4:3
Частота кадров : 25,000 кадр/сек
Разрешение : 8 бит
Колориметрия : 4:2:0
Тип развёртки : Прогрессивная
Бит/(Пиксели*Кадры) : 0.211
Размер потока : 113 Мегабайт (89%)
Библиотека кодирования : DivX 5.2.1 (WaffleDay) (UTC 2004-09-08)
Аудио
Идентификатор : 1
Формат : AC-3
Формат/Информация : Audio Coding 3
Идентификатор кодека : 2000
Продолжительность : 9 м. 47 с.
Вид битрейта : Постоянный
Битрейт : 192 Кбит/сек
Канал(ы) : 2 канала(ов)
Расположение каналов : L R
Частота : 48,0 КГц
Размер потока : 13,5 Мегабайт (11%)
Выравнивание : Разделение по промежуткам
Продолжительность промежутка : 40 мс. (1,00 видеокадр)
Время предзагрузки промежутка : 500 ms
1981г., 00:09:52
Современная сказка о маленьких забавных автомобильчиках.
Общее
Полное имя : Дорожная сказка.avi
Формат : AVI
Формат/Информация : Audio Video Interleave
Размер файла : 129 Мегабайт
Продолжительность : 9 м. 52 с.
Общий поток : 1823 Кбит/сек
Фильм : Дорожная сказка
Режиссёр : Гарри Бардин
Программа кодирования : VirtualDubMod 1.5.10.2 (build 2540/release)
Формат оригинала/Имя : Cartoon
Примечание : DVDrip by tiss
Видео
Идентификатор : 0
Формат : MPEG-4 Visual
Параметры BVOP формата : Да
Параметры QPel формата : Нет
Параметры GMC формата : Без точки перехода
Параметры матрицы формата : Default (H.263)
Режим смешивания : Сжатый битовый поток
Идентификатор кодека : DX50
Идентификатор кодека/Подсказка : DivX 5
Продолжительность : 9 м. 52 с.
Битрейт : 1622 Кбит/сек
Ширина : 640 пикс.
Высота : 480 пикс.
Соотношение кадра : 4:3
Частота кадров : 25,000 кадр/сек
Разрешение : 8 бит
Колориметрия : 4:2:0
Тип развёртки : Прогрессивная
Бит/(Пиксели*Кадры) : 0.211
Размер потока : 114 Мегабайт (89%)
Библиотека кодирования : DivX 5.2.1 (WaffleDay) (UTC 2004-09-08)
Аудио
Идентификатор : 1
Формат : AC-3
Формат/Информация : Audio Coding 3
Идентификатор кодека : 2000
Продолжительность : 9 м. 51 с.
Вид битрейта : Постоянный
Битрейт : 192 Кбит/сек
Канал(ы) : 2 канала(ов)
Расположение каналов : L R
Частота : 48,0 КГц
Размер потока : 13,5 Мегабайт (11%)
Выравнивание : Разделение по промежуткам
Продолжительность промежутка : 40 мс. (1,00 видеокадр)
Время предзагрузки промежутка : 500 ms
1975г., 00:09:03
Дети с помощью Космонавта возвращают на небо упавшую звездочку.
General
Достать до неба.avi
Format : AVI
Format/Info : Audio Video Interleave
File size : 131 MiB
Duration : 9mn 3s
Overall bit rate : 2 017 Kbps
Writing application : FairUse Wizard - http://fairusewizard.com
Writing library : The best and REALLY easy backup tool
Video
Format : MPEG-4 Visual
Format profile : Streaming Video@L1
Format settings, BVOP : Yes
Format settings, QPel : No
Format settings, GMC : No warppoints
Format settings, Matrix : Default
Muxing mode : Packed bitstream
Codec ID : XVID
Codec ID/Hint : XviD
Duration : 9mn 3s
Bit rate : 1 815 Kbps
Width : 672 pixels
Height : 512 pixels
Display aspect ratio : 4/3
Frame rate : 25.000 fps
Resolution : 24 bits
Colorimetry : 4:2:0
Scan type : Progressive
Bits/(Pixel*Frame) : 0.211
Stream size : 118 MiB (90%)
Writing library : XviD 1.2.0.dev47 (UTC 2006-11-01)
Audio
Format : AC-3
Format/Info : Audio Coding 3
Codec ID : 2000
Duration : 9mn 3s
Bit rate mode : Constant
Bit rate : 192 Kbps
Channel(s) : 2 channels
Channel positions : L R
Sampling rate : 48.0 KHz
Stream size : 12.4 MiB (10%)
Alignment : Split accross interleaves
Interleave, duration : 40 ms (1.00 video frame)
Interleave, preload duration : 500 ms
1983г., 00:07:09
Герои фильма — обыкновенные спички. Ссора, вспыхнувшая из-за пустяка, перешла в настоящее сражение, в котором сгорели обе враждовавшие стороны.
Общее
Полное имя : Конфликт.avi
Формат : AVI
Формат/Информация : Audio Video Interleave
Размер файла : 92,6 Мегабайт
Продолжительность : 7 м. 9 с.
Общий поток : 1810 Кбит/сек
Фильм : Конфликт
Режиссёр : Гарри Бардин
Программа кодирования : VirtualDubMod 1.5.10.2 (build 2540/release)
Формат оригинала/Имя : Cartoon
Примечание : DVDrip by tiss
Видео
Идентификатор : 0
Формат : MPEG-4 Visual
Параметры BVOP формата : Да
Параметры QPel формата : Нет
Параметры GMC формата : Без точки перехода
Параметры матрицы формата : Default (H.263)
Режим смешивания : Сжатый битовый поток
Идентификатор кодека : DX50
Идентификатор кодека/Подсказка : DivX 5
Продолжительность : 7 м. 9 с.
Битрейт : 1608 Кбит/сек
Ширина : 640 пикс.
Высота : 480 пикс.
Соотношение кадра : 4:3
Частота кадров : 25,000 кадр/сек
Разрешение : 8 бит
Колориметрия : 4:2:0
Тип развёртки : Прогрессивная
Бит/(Пиксели*Кадры) : 0.209
Размер потока : 82,3 Мегабайт (89%)
Библиотека кодирования : DivX 5.2.1 (WaffleDay) (UTC 2004-09-08)
Аудио
Идентификатор : 1
Формат : AC-3
Формат/Информация : Audio Coding 3
Идентификатор кодека : 2000
Продолжительность : 7 м. 8 с.
Вид битрейта : Постоянный
Битрейт : 192 Кбит/сек
Канал(ы) : 2 канала(ов)
Расположение каналов : L R
Частота : 48,0 КГц
Размер потока : 9,81 Мегабайт (11%)
Выравнивание : Разделение по промежуткам
Продолжительность промежутка : 40 мс. (1,00 видеокадр)
Время предзагрузки промежутка : 500 ms
1995г., 00:27:09
Кот в мешке прибывает в Россию как часть гуманитарной помощи из Америки и достаётся молодому пьянице и горе-патриоту Карабасову, которому предлагает эмигрировать в Америку. Полёт на волшебном коте, который использует хвост в качестве пропеллера, обрывается над Европой. Там зазнавшийся юноша забывает о неоценимых услугах, которые оказал ему Кот в сапогах, и тот возвращает неблагодарного обратно в Россию…
Общее
Полное имя : Кот в сапогах.avi
Формат : AVI
Формат/Информация : Audio Video Interleave
Размер файла : 352 Мегабайт
Продолжительность : 27 м.
Общий поток : 1811 Кбит/сек
Фильм : Кот в сапогах
Режиссёр : Гарри Бардин
Программа кодирования : VirtualDubMod 1.5.10.2 (build 2540/release)
Формат оригинала/Имя : Cartoon
Примечание : DVDrip by tiss
Видео
Идентификатор : 0
Формат : MPEG-4 Visual
Параметры BVOP формата : Да
Параметры QPel формата : Нет
Параметры GMC формата : Без точки перехода
Параметры матрицы формата : Default (H.263)
Режим смешивания : Сжатый битовый поток
Идентификатор кодека : DX50
Идентификатор кодека/Подсказка : DivX 5
Продолжительность : 27 м.
Битрейт : 1610 Кбит/сек
Ширина : 640 пикс.
Высота : 480 пикс.
Соотношение кадра : 4:3
Частота кадров : 25,000 кадр/сек
Разрешение : 8 бит
Колориметрия : 4:2:0
Тип развёртки : Прогрессивная
Бит/(Пиксели*Кадры) : 0.210
Размер потока : 313 Мегабайт (89%)
Библиотека кодирования : DivX 5.2.1 (WaffleDay) (UTC 2004-09-08)
Аудио
Идентификатор : 1
Формат : AC-3
Формат/Информация : Audio Coding 3
Идентификатор кодека : 2000
Продолжительность : 27 м.
Вид битрейта : Постоянный
Битрейт : 192 Кбит/сек
Канал(ы) : 2 канала(ов)
Расположение каналов : L R
Частота : 48,0 КГц
Размер потока : 37,3 Мегабайт (11%)
Выравнивание : Разделение по промежуткам
Продолжительность промежутка : 40 мс. (1,00 видеокадр)
Время предзагрузки промежутка : 500 ms
1979г., 00:17:46
Цветной рисованный фильм по мотивам русской сказки о том, что доброта, бескорыстная любовь и честность всегда побеждают коварство, злобу и чванство.
Общее
Полное имя : Летучий корабль.avi
Формат : AVI
Формат/Информация : Audio Video Interleave
Размер файла : 231 Мегабайт
Продолжительность : 17 м.
Общий поток : 1820 Кбит/сек
Фильм : Летучий корабль
Режиссёр : Гарри Бардин
Жанр : Child's
Программа кодирования : VirtualDubMod 1.5.10.2 (build 2540/release)
Формат оригинала/Имя : Cartoon
Примечание : DVDrip by tiss
Видео
Идентификатор : 0
Формат : MPEG-4 Visual
Параметры BVOP формата : Да
Параметры QPel формата : Нет
Параметры GMC формата : Без точки перехода
Параметры матрицы формата : Default (H.263)
Режим смешивания : Сжатый битовый поток
Идентификатор кодека : DX50
Идентификатор кодека/Подсказка : DivX 5
Продолжительность : 17 м.
Битрейт : 1619 Кбит/сек
Ширина : 640 пикс.
Высота : 480 пикс.
Соотношение кадра : 4:3
Частота кадров : 25,000 кадр/сек
Разрешение : 8 бит
Колориметрия : 4:2:0
Тип развёртки : Прогрессивная
Бит/(Пиксели*Кадры) : 0.211
Размер потока : 206 Мегабайт (89%)
Библиотека кодирования : DivX 5.2.1 (WaffleDay) (UTC 2004-09-08)
Аудио
Идентификатор : 1
Формат : AC-3
Формат/Информация : Audio Coding 3
Идентификатор кодека : 2000
Продолжительность : 17 м.
Вид битрейта : Постоянный
Битрейт : 192 Кбит/сек
Канал(ы) : 2 канала(ов)
Расположение каналов : L R
Частота : 48,0 КГц
Размер потока : 24,4 Мегабайт (11%)
Выравнивание : Разделение по промежуткам
Продолжительность промежутка : 40 мс. (1,00 видеокадр)
Время предзагрузки промежутка : 500 ms
1980г, 00:16:48
Пародия на театральные штампы, разыгранная на сюжет популярного шуточного стихотворения.
General
Complete name : Пиф-паф, ой-ой-ой.avi
Format : AVI
Format/Info : Audio Video Interleave
File size : 304 MiB
Duration : 16mn 48s
Overall bit rate : 2 527 Kbps
Writing application : VirtualDubModRus 1.5.10.2 (build 2542/release)
Writing library : VirtualDubMod build 2542/release
Video
Format : MPEG-4 Visual
Format profile : Streaming Video@L1
Format settings, BVOP : Yes
Format settings, QPel : No
Format settings, GMC : No warppoints
Format settings, Matrix : Default
Muxing mode : Packed bitstream
Codec ID : XVID
Codec ID/Hint : XviD
Duration : 16mn 48s
Bit rate : 2 326 Kbps
Width : 720 pixels
Height : 544 pixels
Display aspect ratio : 4/3
Frame rate : 25.000 fps
Resolution : 24 bits
Colorimetry : 4:2:0
Scan type : Progressive
Bits/(Pixel*Frame) : 0.238
Stream size : 280 MiB (92%)
Writing library : XviD 50
Audio
Format : AC-3
Format/Info : Audio Coding 3
Codec ID : 2000
Duration : 16mn 48s
Bit rate mode : Constant
Bit rate : 192 Kbps
Channel(s) : 2 channels
Channel positions : L R
Sampling rate : 48.0 KHz
Stream size : 23.1 MiB (8%)
Alignment : Split accross interleaves
Interleave, duration : 40 ms (1.00 video frame)
Interleave, preload duration : 500 ms
1982г., 00:15:48
По мотивам цыганской притчи.
Общее
Полное имя : Прежде мы были птицами.avi
Формат : AVI
Формат/Информация : Audio Video Interleave
Размер файла : 205 Мегабайт
Продолжительность : 15 м.
Общий поток : 1812 Кбит/сек
Фильм : Прежде мы были птицами
Режиссёр : Гарри Бардин
Программа кодирования : VirtualDubMod 1.5.10.2 (build 2540/release)
Формат оригинала/Имя : Cartoon
Примечание : DVDrip by tiss
Видео
Идентификатор : 0
Формат : MPEG-4 Visual
Параметры BVOP формата : Да
Параметры QPel формата : Нет
Параметры GMC формата : Без точки перехода
Параметры матрицы формата : Default (H.263)
Режим смешивания : Сжатый битовый поток
Идентификатор кодека : DX50
Идентификатор кодека/Подсказка : DivX 5
Продолжительность : 15 м.
Битрейт : 1611 Кбит/сек
Ширина : 640 пикс.
Высота : 480 пикс.
Соотношение кадра : 4:3
Частота кадров : 25,000 кадр/сек
Разрешение : 8 бит
Колориметрия : 4:2:0
Тип развёртки : Прогрессивная
Бит/(Пиксели*Кадры) : 0.210
Размер потока : 182 Мегабайт (89%)
Библиотека кодирования : DivX 5.2.1 (WaffleDay) (UTC 2004-09-08)
Аудио
Идентификатор : 1
Формат : AC-3
Формат/Информация : Audio Coding 3
Идентификатор кодека : 2000
Продолжительность : 15 м.
Вид битрейта : Постоянный
Битрейт : 192 Кбит/сек
Канал(ы) : 2 канала(ов)
Расположение каналов : L R
Частота : 48,0 КГц
Размер потока : 21,7 Мегабайт (11%)
Выравнивание : Разделение по промежуткам
Продолжительность промежутка : 40 мс. (1,00 видеокадр)
Время предзагрузки промежутка : 500 ms
1978г., 00:09:02
Приключения закадычных друзей Хомы и Суслика, которым не приходится скучать, потому что они постоянно попадают в разные забавные истории: делают друг за друга зарядку, пугают на ночь страшными историями, отправляются в далекое и опасное путешествие на крапивную горку…
General
Complete name :Приключения Хомы.avi
Format : AVI
Format/Info : Audio Video Interleave
File size : 131 MiB
Duration : 9mn 4s
Overall bit rate : 2 013 Kbps
Writing application : FairUse Wizard - http://fairusewizard.com
Writing library : The best and REALLY easy backup tool
Video
Format : MPEG-4 Visual
Format profile : Streaming Video@L1
Format settings, BVOP : Yes
Format settings, QPel : No
Format settings, GMC : No warppoints
Format settings, Matrix : Default
Muxing mode : Packed bitstream
Codec ID : XVID
Codec ID/Hint : XviD
Duration : 9mn 4s
Bit rate : 1 811 Kbps
Width : 688 pixels
Height : 512 pixels
Display aspect ratio : 4/3
Frame rate : 25.000 fps
Resolution : 24 bits
Colorimetry : 4:2:0
Scan type : Progressive
Bits/(Pixel*Frame) : 0.206
Stream size : 118 MiB (90%)
Writing library : XviD 1.2.0.dev47 (UTC 2006-11-01)
Audio
Format : AC-3
Format/Info : Audio Coding 3
Codec ID : 2000
Duration : 9mn 4s
Bit rate mode : Constant
Bit rate : 192 Kbps
Channel(s) : 2 channels
Channel positions : L R
Sampling rate : 48.0 KHz
Stream size : 12.5 MiB (10%)
Alignment : Split accross interleaves
Interleave, duration : 40 ms (1.00 video frame)
Interleave, preload duration : 500 ms
1990г., 00:25:45
Соскучившись по Бабушке Терезе, мать отправляет Красную Шапочку из Москвы в Париж доставить ей русский праздничный пирог. Проходя через лес, Красная Шапочка встречает особо опасного преступника — Серого Волка, который к тому времени уже съел доктора Айболита и Зайчика. Он расспрашивает её, куда она идёт и с чем её пирог.
Общее
Полное имя : Серый Волк энд Красная Шапочка.avi
Формат : AVI
Формат/Информация : Audio Video Interleave
Размер файла : 335 Мегабайт
Продолжительность : 25 м.
Общий поток : 1818 Кбит/сек
Фильм : Серый волк & Красная Шапочка
Режиссёр : Гарри Бардин
Программа кодирования : VirtualDubMod 1.5.10.2 (build 2540/release)
Формат оригинала/Имя : Cartoon
Примечание : DVDrip by tiss
Видео
Идентификатор : 0
Формат : MPEG-4 Visual
Параметры BVOP формата : Да
Параметры QPel формата : Нет
Параметры GMC формата : Без точки перехода
Параметры матрицы формата : Default (H.263)
Режим смешивания : Сжатый битовый поток
Идентификатор кодека : DX50
Идентификатор кодека/Подсказка : DivX 5
Продолжительность : 25 м.
Битрейт : 1617 Кбит/сек
Ширина : 640 пикс.
Высота : 480 пикс.
Соотношение кадра : 4:3
Частота кадров : 25,000 кадр/сек
Разрешение : 8 бит
Колориметрия : 4:2:0
Тип развёртки : Прогрессивная
Бит/(Пиксели*Кадры) : 0.211
Размер потока : 298 Мегабайт (89%)
Библиотека кодирования : DivX 5.2.1 (WaffleDay) (UTC 2004-09-08)
Аудио
Идентификатор : 1
Формат : AC-3
Формат/Информация : Audio Coding 3
Идентификатор кодека : 2000
Продолжительность : 25 м.
Вид битрейта : Постоянный
Битрейт : 192 Кбит/сек
Канал(ы) : 2 канала(ов)
Расположение каналов : L R
Частота : 48,0 КГц
Размер потока : 35,3 Мегабайт (11%)
Выравнивание : Разделение по промежуткам
Продолжительность промежутка : 40 мс. (1,00 видеокадр)
Время предзагрузки промежутка : 500 ms
1984г., 00:09:07
Рассказывая о том, как пластилиновые герои Тяп и Ляп красят заводской забор, фильм высмеивает разгильдяев и бракоделов.
Общее
Полное имя : Тяп-ляп, маляры.avi
Формат : AVI
Формат/Информация : Audio Video Interleave
Размер файла : 118 Мегабайт
Продолжительность : 9 м. 7 с.
Общий поток : 1804 Кбит/сек
Фильм : Тяп-ляп маляры
Режиссёр : Гарри Бардин
Программа кодирования : VirtualDubMod 1.5.10.2 (build 2540/release)
Формат оригинала/Имя : Cartoon
Примечание : DVDrip by tiss
Видео
Идентификатор : 0
Формат : MPEG-4 Visual
Параметры BVOP формата : Да
Параметры QPel формата : Нет
Параметры GMC формата : Без точки перехода
Параметры матрицы формата : Default (H.263)
Режим смешивания : Сжатый битовый поток
Идентификатор кодека : DX50
Идентификатор кодека/Подсказка : DivX 5
Продолжительность : 9 м. 7 с.
Битрейт : 1603 Кбит/сек
Ширина : 640 пикс.
Высота : 480 пикс.
Соотношение кадра : 4:3
Частота кадров : 25,000 кадр/сек
Разрешение : 8 бит
Колориметрия : 4:2:0
Тип развёртки : Прогрессивная
Бит/(Пиксели*Кадры) : 0.209
Размер потока : 105 Мегабайт (89%)
Библиотека кодирования : DivX 5.2.1 (WaffleDay) (UTC 2004-09-08)
Аудио
Идентификатор : 1
Формат : AC-3
Формат/Информация : Audio Coding 3
Идентификатор кодека : 2000
Продолжительность : 9 м. 5 с.
Вид битрейта : Постоянный
Битрейт : 192 Кбит/сек
Канал(ы) : 2 канала(ов)
Расположение каналов : L R
Частота : 48,0 КГц
Размер потока : 12,5 Мегабайт (11%)
Выравнивание : Разделение по промежуткам
Продолжительность промежутка : 40 мс. (1,00 видеокадр)
Время предзагрузки промежутка : 500 ms
1995г., 00:24:22
Если ты маленький, а вокруг одни взрослые и до тебя никому нет дела — это грустно. Но если это еще происходит в новогоднюю ночь, то это — просто тоска.

Фильм о мальчике, который сам себе смастерил из старых, ненужных вещей очень нужную ему няню — Чучу. И, как всегда бывает в сказках, Чуча ожила. А уж что она устроила для мальчика, какой праздник, рассказывать бессмысленно.
Общее
Полное имя : Чуча.avi
Формат : AVI
Формат/Информация : Audio Video Interleave
Размер файла : 316 Мегабайт
Продолжительность : 24 м.
Общий поток : 1812 Кбит/сек
Фильм : Чуча
Режиссёр : Гарри Бардин
Жанр : Child's
Программа кодирования : VirtualDubMod 1.5.10.2 (build 2540/release)
Формат оригинала/Имя : Cartoon
Примечание : DVDrip by tiss
Видео
Идентификатор : 0
Формат : MPEG-4 Visual
Параметры BVOP формата : Да
Параметры QPel формата : Нет
Параметры GMC формата : Без точки перехода
Параметры матрицы формата : Default (H.263)
Режим смешивания : Сжатый битовый поток
Идентификатор кодека : DX50
Идентификатор кодека/Подсказка : DivX 5
Продолжительность : 24 м.
Битрейт : 1610 Кбит/сек
Ширина : 640 пикс.
Высота : 480 пикс.
Соотношение кадра : 4:3
Частота кадров : 25,000 кадр/сек
Разрешение : 8 бит
Колориметрия : 4:2:0
Тип развёртки : Прогрессивная
Бит/(Пиксели*Кадры) : 0.210
Размер потока : 281 Мегабайт (89%)
Библиотека кодирования : DivX 5.2.1 (WaffleDay) (UTC 2004-09-08)
Аудио
Идентификатор : 1
Формат : AC-3
Формат/Информация : Audio Coding 3
Идентификатор кодека : 2000
Продолжительность : 24 м.
Вид битрейта : Постоянный
Битрейт : 192 Кбит/сек
Канал(ы) : 2 канала(ов)
Расположение каналов : L R
Частота : 48,0 КГц
Размер потока : 33,5 Мегабайт (11%)
Выравнивание : Разделение по промежуткам
Продолжительность промежутка : 40 мс. (1,00 видеокадр)
Время предзагрузки промежутка : 500 ms
2001г., 00:25:58
Фильм о мальчике, который сам себе смастерил из старых, ненужных вещей очень нужную ему няню — Чучу. И, как бывает в сказках, Чуча ожила. Настоящая дружба — не только праздники, но и суровые испытания, которые с честью преодолевают герои.
Общее
Полное имя : Чуча 2.avi
Формат : AVI
Формат/Информация : Audio Video Interleave
Размер файла : 337 Мегабайт
Продолжительность : 25 м.
Общий поток : 1811 Кбит/сек
Фильм : Чуча 2
Режиссёр : Гарри Бардин
Жанр : Child's
Программа кодирования : VirtualDubMod 1.5.10.2 (build 2540/release)
Формат оригинала/Имя : Cartoon
Примечание : DVDrip by tiss
Видео
Идентификатор : 0
Формат : MPEG-4 Visual
Параметры BVOP формата : Да
Параметры QPel формата : Нет
Параметры GMC формата : Без точки перехода
Параметры матрицы формата : Default (H.263)
Режим смешивания : Сжатый битовый поток
Идентификатор кодека : DX50
Идентификатор кодека/Подсказка : DivX 5
Продолжительность : 25 м.
Битрейт : 1609 Кбит/сек
Ширина : 640 пикс.
Высота : 480 пикс.
Соотношение кадра : 4:3
Частота кадров : 25,000 кадр/сек
Разрешение : 8 бит
Колориметрия : 4:2:0
Тип развёртки : Прогрессивная
Бит/(Пиксели*Кадры) : 0.210
Размер потока : 299 Мегабайт (89%)
Библиотека кодирования : DivX 5.2.1 (WaffleDay) (UTC 2004-09-08)
Аудио
Идентификатор : 1
Формат : AC-3
Формат/Информация : Audio Coding 3
Идентификатор кодека : 2000
Продолжительность : 25 м.
Вид битрейта : Постоянный
Битрейт : 192 Кбит/сек
Канал(ы) : 2 канала(ов)
Расположение каналов : L R
Частота : 48,0 КГц
Размер потока : 35,7 Мегабайт (11%)
Выравнивание : Разделение по промежуткам
Продолжительность промежутка : 40 мс. (1,00 видеокадр)
Время предзагрузки промежутка : 500 ms
2004г., 00:28:28
История мальчика и его няни, разыгранная на музыку Ж. Бизе — Р. Щедрина «Кармен — сюита». В их жизни появляется третий персонаж, щенок, что вызывает безумную ревность мальчика. Но всех примиряет любовь.
Общее
Полное имя : Чуча 3.avi
Формат : AVI
Формат/Информация : Audio Video Interleave
Размер файла : 369 Мегабайт
Продолжительность : 28 м.
Общий поток : 1812 Кбит/сек
Фильм : Чуча 3
Режиссёр : Гарри Бардин
Жанр : Child's
Программа кодирования : VirtualDubMod 1.5.10.2 (build 2540/release)
Формат оригинала/Имя : Cartoon
Примечание : DVDrip by tiss
Видео
Идентификатор : 0
Формат : MPEG-4 Visual
Параметры BVOP формата : Да
Параметры QPel формата : Нет
Параметры GMC формата : Без точки перехода
Параметры матрицы формата : Default (H.263)
Режим смешивания : Сжатый битовый поток
Идентификатор кодека : DX50
Идентификатор кодека/Подсказка : DivX 5
Продолжительность : 28 м.
Битрейт : 1610 Кбит/сек
Ширина : 640 пикс.
Высота : 480 пикс.
Соотношение кадра : 4:3
Частота кадров : 25,000 кадр/сек
Разрешение : 8 бит
Колориметрия : 4:2:0
Тип развёртки : Прогрессивная
Бит/(Пиксели*Кадры) : 0.210
Размер потока : 328 Мегабайт (89%)
Библиотека кодирования : DivX 5.2.1 (WaffleDay) (UTC 2004-09-08)
Аудио
Идентификатор : 1
Формат : AC-3
Формат/Информация : Audio Coding 3
Идентификатор кодека : 2000
Продолжительность : 28 м.
Вид битрейта : Постоянный
Битрейт : 192 Кбит/сек
Канал(ы) : 2 канала(ов)
Расположение каналов : L R
Частота : 48,0 КГц
Размер потока : 39,1 Мегабайт (11%)
Выравнивание : Разделение по промежуткам
Продолжительность промежутка : 40 мс. (1,00 видеокадр)
Время предзагрузки промежутка : 500 ms
Скриншоты:


Время раздачи: 24\7, до 5 скачавших
[NNM-Club.me]_[NNM-Club.ru]_Garri Bardin.torrent
 Торрент: Платиновая раздача  Зарегистрирован
 
Скачать


Примагнититься
 Зарегистрирован:   18 Дек 2018 12:51:20
 Размер:   3,76 GB  (
 Рейтинг:   4,9 (Голосов: 307)
 Поблагодарили:   1190
 Проверка:   Оформление проверено модератором 18 Дек 2018 12:55:17
Как cкачать  ·  Как раздать  ·  Правильно оформить  ·  Поднять ратио!  
Krucha
Стаж: 10 лет 4 мес.
Сообщений: 3647
Ratio: 163,335
Поблагодарили: 252165
100%
Откуда: Запорожье
ussr.gif
Однозначно качаю !!!
Спасибо за проделанную работу :респект:
almikl ®
Куратор Детского.
Модератор Видео.
RG Всё лучшее - детям!
Uploader 500+
 
Стаж: 12 лет 2 мес.
Сообщений: 4667
Ratio: 329,578
Поблагодарили: 104383
100%
Откуда: Дааалекое Подмосковье
russia.gif
krucha0
Спасибо =)
-Alexander-
Стаж: 9 лет 7 мес.
Сообщений: 1
Ratio: 15,448
41.46%
Спасибо! Классная подборка! А почему "Гадкого утёнка" на музыку из "Лебединого озера" нет? Это из его последних работ.
almikl ®
Куратор Детского.
Модератор Видео.
RG Всё лучшее - детям!
Uploader 500+
 
Стаж: 12 лет 2 мес.
Сообщений: 4667
Ratio: 329,578
Поблагодарили: 104383
100%
Откуда: Дааалекое Подмосковье
russia.gif
-Alexander-
потому что "Гадкий утенок" не попадает под временной интервал данного релиза и присутствует на трекере в любых вариантах качества, а тут собраны его предыдущие работы
4EXTbI
 
Стаж: 8 лет 1 мес.
Сообщений: 6965
Ratio: 367,548
Раздал: 72,32 TB
100%
Откуда: Море Байкал ®
ussr.gif
СПСБ! В рознь все это присутствовало, но приятнее когда в стае. :респект:
Aorum
Стаж: 9 лет 2 мес.
Сообщений: 232
Ratio: 32,031
Поблагодарили: 2373
100%
Откуда: Black Mesa
ussr.gif
Огромное спасибо за релиз. Замечательная подборка.

_________________
Я стар, я очень стар, я просто Superstar!
almikl ®
Куратор Детского.
Модератор Видео.
RG Всё лучшее - детям!
Uploader 500+
 
Стаж: 12 лет 2 мес.
Сообщений: 4667
Ratio: 329,578
Поблагодарили: 104383
100%
Откуда: Дааалекое Подмосковье
russia.gif
4EXTbI
Aorum
:приветствую:
Стиль
Стаж: 10 лет 10 мес.
Сообщений: 201
Ratio: 11,671
100%
Спасибо!!!!!
СКАТ2011
Стаж: 8 лет 3 мес.
Сообщений: 3
Ratio: 4,458
52.63%
Отличный сборник!!!!Спасибо огромаднейшее!!!! У Вас хороший вкус! Желаю успеха!
alexbrtn
Стаж: 7 лет 8 мес.
Сообщений: 328
Ratio: 13,627
Поблагодарили: 1690
100%
Откуда: Одесса
ukraine.gif
"Адажио" - сильный мультфильм!
диарх
Стаж: 8 лет 6 мес.
Сообщений: 142
Ratio: 14,205
67.21%
russia.gif
спаааааааааасибо огромное за азаботу о наших детях
4EXTbI
 
Стаж: 8 лет 1 мес.
Сообщений: 6965
Ratio: 367,548
Раздал: 72,32 TB
100%
Откуда: Море Байкал ®
ussr.gif
alexbrtn писал(а): Перейти к сообщению
"Адажио"

1+
(Однозначно )))

_________________
pet8766
Стаж: 9 лет 2 мес.
Сообщений: 17
Ratio: 14,035
100%
russia.gif
Спасибо !!!!!!!
lve55
Олигарх+
 
Стаж: 9 лет 10 мес.
Сообщений: 825
Ratio: 27,079
Раздал: 8,133 TB
Поблагодарили: 23
100%
Откуда: Санкт-Петербург
russia.gif
Исключительно на любителей "чёрного квадрата", истоков и эстетики контемпорари арта (проще буза под видом заумности). ИМХО! Раздающего благодарю!

_________________
Не во всякой игре тузы выигрывают!, а Детям, у коих прорезываются зубы, смело присоветую фиалковый корень! Козьма Прутков
Показать сообщения:   
Начать новую тему   Ответить на тему    Торрент-трекер NNM-Club -> Мультфильмы -> Отечественные Мультфильмы (HD*Rip/LQ, DVDRip, SATRip, VHSRip) Часовой пояс: GMT + 3
Страницы:  1, 2  След.
Страница 1 из 2