Классический форум-трекер
canvas not supported
Нас вместе: 4 094 203

Сезон лохов / Sezon na LESZCZA (2001) DVD5


 
 
RSS
Начать новую тему   Ответить на тему    Торрент-трекер NNM-Club -> Зарубежное кино -> Зарубежные Фильмы (DVD)
Автор Сообщение
SKVSM ®
Покровитель талантов
Uploader 100+
 
Стаж: 9 лет 4 мес.
Сообщений: 1083
Ratio: 297,881
Поблагодарили: 21436
100%
nnm-club.gif
Сезон лохов / Sezon na LESZCZA (2001) DVD5
Русское название: Сезон лохов

Жанр: Драма, Криминал, Детектив
Производство: Польша

Описание:
В фильме две сюжетные линии, которые пересекаются только в финале. Первая связана с бандой грабителей, чей налет на банк закончился фиаско. После гибели главаря остаются двое – молодые, неопытные и смертельно напуганные брат с сестрой. В угнанной ими машине оказывается ребенок. Так грабители вдобавок становятся похитителями… Вторая линия связана с полицейским дорожно-патрульной службы, от которого сбежала жена. В поисках изменницы он выходит на ее любовника-бандита. Пока задержанного допрашивают в участке, полицейский отправляется, как это водится, отловить на дороге лоха и заработать на пиво. Он останавливает именно ту машину, в которой находятся брат и сестра...
Режиссер: Богуслав Линда
Актеры: Анна Пржыбыльска, Гэбриел Флешар, Богуслав Линда, Кшиштоф Банашик, Гржегорц Борек, Мариан Дзендзель, Роберт Гонера, Аркадиуш Якубик, Иоанна Йедрежек, Беата Кавка, Дариуш Кордек
Продолжительность: 01:27:10
Перевод: Многоголосый закадровый
Язык субтитров: Английский
Дополнительно: Рассказ со съемок (На польском)

Дата мировой премьеры: 26 января 2001
Видеокодек: MPEG-2
Битрейт видео: ~ 4467 Кбит/с
Размер кадра: PAL 16:9 (720x576) VBR, Auto Letterboxed
Качество видео: DVD5
Аудио:
#1: AC3, 6 ch, ~ 384 Кбит/с (Русский)
#2: AC3, 6 ch, ~ 448 Кбит/с (Польский)
Код: выделить все
Title: Sezon_Lohov_DVD-5[br]Size: 4.02 Gb ( 4 212 842 KBytes ) - DVD-5
Enabled regions: 1, 2, 3, 4, 5, 6, 7, 8

VTS_01 :
  Play Length: 01:27:10
  Video: PAL 16:9 (720x576) VBR, Auto Letterboxed
  Audio:
      Russian (Dolby AC3, 6 ch)
      Polish (Dolby AC3, 6 ch)
  Subtitles:
      English

VTS_02 :
  Play Length: 00:22:43
  Video: PAL 4:3 (720x576) VBR
  Audio:
      Not specified (Dolby AC3, 2 ch)

Menu Video:
      PAL 4:3 (720x576) VBR
Menu English Language Unit :
      Root Menu
      Chapter (PTT) Menu

Audio #1: AC3, 3/2+LFE ch, 384Kbps, Delay 0 mSec
Audio #2: AC3, 3/2+LFE ch, 448Kbps, Delay 0 mSec
Код: выделить все
Общее
Полное имя                       : F:\Sezon_Lohov_DVD-5\VIDEO_TS\VTS_01_1.VOB
Формат                           : MPEG-PS
Размер файла                     : 1024 Мбайт
Продолжительность                : 26 м.
Общий поток                      : 5407 Кбит/сек

Видео
Идентификатор                    : 224 (0xE0)
Формат                           : MPEG Video
Версия формата                   : Version 2
Профиль формата                  : Main@Main
Параметр BVOP формата            : Да
Параметр матрицы формата         : По умолчанию
Продолжительность                : 26 м.
Вид битрейта                     : Переменный
Битрейт                          : 4467 Кбит/сек
Номинальный битрейт              : 8500 Кбит/сек
Ширина                           : 720 пикс.
Высота                           : 576 пикс.
Соотношение сторон               : 2,35:1
Частота кадров                   : 25,000 кадр/сек
Стандарт вещания                 : PAL
Цветовое пространство            : YUV
Подвыборка цветности             : 4:2:0
Битовая глубина                  : 8 бит
Тип развёртки                    : Чересстрочная
Порядок развёртки                : Верхнее поле первое
Метод сжатия                     : С потерями
Бит/(Пиксели*Кадры)              : 0.431
Размер потока                    : 846 Мбайт (83%)

Аудио #1
Идентификатор                    : 128 (0x80)
Формат                           : AC-3
Формат/Информация                : Audio Coding 3
Расширение режима                : CM (complete main)
Продолжительность                : 26 м.
Вид битрейта                     : Постоянный
Битрейт                          : 384 Кбит/сек
Канал(ы)                         : 6 канала(ов)
Расположение каналов             : Front: L C R, Side: L R, LFE
Частота                          : 48,0 КГц
Битовая глубина                  : 16 бит
Метод сжатия                     : С потерями
Размер потока                    : 72,7 Мбайт (7%)

Аудио #2
Идентификатор                    : 129 (0x81)
Формат                           : AC-3
Формат/Информация                : Audio Coding 3
Расширение режима                : CM (complete main)
Продолжительность                : 26 м.
Вид битрейта                     : Постоянный
Битрейт                          : 448 Кбит/сек
Канал(ы)                         : 6 канала(ов)
Расположение каналов             : Front: L C R, Side: L R, LFE
Частота                          : 48,0 КГц
Битовая глубина                  : 16 бит
Метод сжатия                     : С потерями
Размер потока                    : 84,8 Мбайт (8%)

Меню
Скриншоты:





Время раздачи: 24/7 - круглосуточно
[NNM-Club.ru] Sezon_Lohov_DVD-5.torrent
 Торрент: Платиновая раздача  Зарегистрирован
 
Скачать


Примагнититься
 Зарегистрирован:   22 Ноя 2019 12:23:27
 Размер:   4,02 GB  (
 Рейтинг:   4,7 (Голосов: 15)
 Поблагодарили:   94
 Проверка:   Оформление проверено модератором 22 Ноя 2019 12:31:19
Как cкачать  ·  Как раздать  ·  Правильно оформить  ·  Поднять ратио!  
АНДРЕЙ19681984
Стаж: 9 лет 3 мес.
Сообщений: 59
Ratio: 4,696
100%
russia.gif
хорошее кино.жалко,что всего один раздающий.может кто еще подключится.попробует то же скачать.может вместе быстрее вытяним :смущение:

заранее большое спасибо за помощь :подмигивание:
NorthOn
 
Админ
Стаж: 13 лет 6 мес.
Сообщений: 13315
Ratio: 1096,266
Поблагодарили: 14452
100%
nnm-club.gif
Торрент обновлен в рамках акции Включаем DHT в древних раздачах
Теперь вам нужно его скачать и открыть в торрент-клиенте, указав в качестве места сохранения раздаваемый файл или папку.

_________________
Либо я найду путь, либо проложу его...
Показать сообщения:   
Начать новую тему   Ответить на тему    Торрент-трекер NNM-Club -> Зарубежное кино -> Зарубежные Фильмы (DVD) Часовой пояс: GMT + 3
Страница 1 из 1