Классический форум-трекер
canvas not supported
Нас вместе: 4 102 418

Амазонки (1-24 серия из 24) (2011) SATRip


 
 
RSS
Начать новую тему   Ответить на тему    Торрент-трекер NNM-Club -> Отечественные сериалы
Автор Сообщение
Krucha ®
Стаж: 10 лет 11 мес.
Сообщений: 3647
Ratio: 163,335
Поблагодарили: 253082
100%
Откуда: Запорожье
ussr.gif
Амазонки (2011) SATRip
Русское название: Амазонки
Год выпуска: 2011
Жанр: Детектив, Комедия

Дата российской премьеры: 27 июня 2011

Информация о сериале с ресурса kino-teatr

Режиссер: Евгений Лаврентьев, Святослав Власов, Валентина Власова
Актеры: Наталья Рудова, Марина Коняшкина, Софья Игнатова, Марина Вайнбранд, Борис Хвошнянский, Валерий Афанасьев, Роман Радов, Александр Нестеров, Юрий Оленников, Ирина Шебеко, Нелли Неведина, Сергей Быстрицкий, Евгений Воскресенский, Павел Лобков, Михаил Богдасаров, Олеся (Ольга) Поташинская, Валерий Сторожик, Игнатий Акрачков, Павел Кассинский, Михаил Никольский, Максим Житник, Артем Григорьев, Ольга Науменко, Дмитрий Мазуров, Алексей Анищенко, Андрей Денисов, Евгений Крылов, Андрей Молотков, Роман Кузнеченко, Дмитрий Дементьев, Мария Фомина, Вера Иванко, Ольга Анненская, Нияз Гаджиев, Алина Ольшанская, Николай Аверюшкин, Леонид Калараш, Игорь Ванюшкин, Александр Кудинов, Артемий Малахов, Марина Правкина, Евгений Смирнов (II), Андрей Лебедев, Александр Зуев, Валерий Кудашкин, Владимир Чуприков, Анвар Халилулаев

Описание фильма:
Они обворожительны, сильны и сексуальны. Они — это специальное экспериментальное подразделение (СЭП) «Амазонки», созданное в рамках научно-исследовательского центра следственного комитета МВД России. Четвёрка прелестных спецагентов расследует самые запутанные и невероятные преступления. Там, где мужской ум оказывается в тупике, на помощь приходят детективы в юбках! И кто сказал, что это не женская работа? В их руках оружие, мощнее водородной бомбы. Их главный козырь — неповторимая женская интуиция и женская логика! Какими бы ни были обстоятельства, «Амазонки» всегда добьются положительного результата. Правда, не всегда поймут, как именно они его добились….
Энергию неукротимых Амазонок направляет в нужное русло мозг следственной группы, талантливый ученый по фамилии Крестовский. Он держит под контролем весь ход расследования и всегда приходит на помощь в трудную минуту. Именно Крестовский разработал так называемый интуитивный метод, когда преступление помогает раскрыть не логическое дедуктивное построение, а интуитивное спонтанное поведение. В ходе эксперимента он пришел к совершенно неожиданному для себя выводу: лучших результатов в интуитивном методе достигают именно особы женского пола. Для подтверждения данной гипотезы из девушек с разными психотипами была собрана команда «Амазонки».
Женская логика непредсказуема! Женская красота непобедима!

Продолжительность: от 00:47:00 до 00:49:00
Качество видео: SATRip

Видеокодек: Xvid ,DivX 5
Битрейт видео: ~1394 - 1549 kbps
Размер кадра: 704x400
Аудиокодек: MP3
Битрейт аудио: 128 Кбит/сек
Format : AVI
Format/Info : Audio Video Interleave
File size : 524 MiB
Duration : 47mn 47s
Overall bit rate : 1 532 Kbps
Writing application : VirtualDubMod 1.5.10.3 | www.virtualdub-fr.org || (build 2550/release)
Writing library : VirtualDubMod build 2550/release

Video
ID : 0
Format : MPEG-4 Visual
Format profile : Advanced Simple@L5
Format settings, BVOP : Yes
Format settings, QPel : No
Format settings, GMC : No warppoints
Format settings, Matrix : Default (MPEG)
Muxing mode : Packed bitstream
Codec ID : XVID
Codec ID/Hint : XviD
Duration : 47mn 47s
Bit rate : 1 394 Kbps
Width : 704 pixels
Height : 400 pixels
Display aspect ratio : 16:9
Frame rate : 25.000 fps
Color space : YUV
Chroma subsampling : 4:2:0
Bit depth : 8 bits
Scan type : Progressive
Compression mode : Lossy
Bits/(Pixel*Frame) : 0.198
Stream size : 477 MiB (91%)
Writing library : XviD 64

Audio
ID : 1
Format : MPEG Audio
Format version : Version 1
Format profile : Layer 3
Mode : Joint stereo
Mode extension : MS Stereo
Codec ID : 55
Codec ID/Hint : MP3
Duration : 47mn 47s
Bit rate mode : Constant
Bit rate : 128 Kbps
Channel(s) : 2 channels
Sampling rate : 48.0 KHz
Compression mode : Lossy
Stream size : 43.8 MiB (8%)
Alignment : Aligned on interleaves
Interleave, duration : 40 ms (1.00 video frame)
Interleave, preload duration : 504 ms
Writing library : LAME3.90.3ЄЄЄЄЄЄЄЄЄЄ
General
Complete name : E:\торрент\Амазонки\Amazonki.20.2011.SATRip..avi
Format : AVI
Format/Info : Audio Video Interleave
File size : 583 MiB
Duration : 48mn 16s
Overall bit rate : 1 687 Kbps
Writing application : VirtualDubMod 1.5.10.3 (build 2550/release)
Writing library : VirtualDubMod build 2550/release

Video
ID : 0
Format : MPEG-4 Visual
Format settings, BVOP : Yes
Format settings, QPel : No
Format settings, GMC : No warppoints
Format settings, Matrix : Default (H.263)
Muxing mode : Packed bitstream
Codec ID : DX50
Codec ID/Hint : DivX 5
Duration : 48mn 16s
Bit rate : 1 549 Kbps
Width : 704 pixels
Height : 400 pixels
Display aspect ratio : 16:9
Frame rate : 25.000 fps
Color space : YUV
Chroma subsampling : 4:2:0
Bit depth : 8 bits
Scan type : Progressive
Compression mode : Lossy
Bits/(Pixel*Frame) : 0.220
Stream size : 535 MiB (92%)
Writing library : DivX 6.8.5 (UTC 2009-08-20)

Audio
ID : 1
Format : MPEG Audio
Format version : Version 1
Format profile : Layer 3
Mode : Joint stereo
Mode extension : MS Stereo
Codec ID : 55
Codec ID/Hint : MP3
Duration : 48mn 16s
Bit rate mode : Constant
Bit rate : 128 Kbps
Channel(s) : 2 channels
Sampling rate : 48.0 KHz
Compression mode : Lossy
Stream size : 44.2 MiB (8%)
Alignment : Split accross interleaves
Interleave, duration : 40 ms (1.00 video frame)
Interleave, preload duration : 500 ms
Скриншоты:


Время раздачи: С 23:00 до 8:30

[NNM-Club.ru]_Amazonki.torrent
 Торрент: Платиновая раздача  Зарегистрирован
 
Скачать


 Зарегистрирован:   04 Авг 2011 14:33:41
 Размер:   12,6 GB  (
 Рейтинг:   4,6 (Голосов: 54)
 Поблагодарили:   247
 Проверка:   Оформление проверено модератором 04 Авг 2011 23:41:09
Как cкачать  ·  Как раздать  ·  Правильно оформить  ·  Поднять ратио!  
bavaj1603
Стаж: 9 лет 5 мес.
Сообщений: 8
Ratio: 2,662
100%
ukraine.gif
Спасибо, качество норма, обновляется быстро, в общем еще раз спасибо.
А то по СТС в неудобное для меня время идет.
Hitlo
Стаж: 11 лет
Сообщений: 90
Ratio: 2,074
100%
burkinafaso.gif
Релизёру за труды спасибо!
Iojjik
Стаж: 8 лет 11 мес.
Сообщений: 118
Ratio: 1,572
100%
russia.gif
сериал бред конечно..и ведь кому то нравится)
Hitlo писал(а): Перейти к сообщению
Релизёру за труды спасибо!
=)
exLeft
Стаж: 9 лет 8 мес.
Сообщений: 70
Ratio: 4,715
7.94%
ussr.gif
Релизеру спасибо! Но по поводу самого сюжета - хм, еще один российский треш, как "метод лавровой"
один курсант с такой прической - убивает напрочь просто. >_< у нас бы в инсте так ходили бы курсанты :D вот это шоу бы было
alauda1038
Стаж: 11 лет 2 мес.
Сообщений: 434
Ratio: 6,267
0.14%
Откуда: Санкт-Петербург
russia.gif
посмотреть бы наш вариант звездного пути,или звездных врат
_Pervozurg_
Стаж: 10 лет 5 мес.
Сообщений: 27
Ratio: 184,994
Поблагодарили: 207
100%
russia.gif
Спасибо раздющему. :клево:
alexfas
Стаж: 9 лет 5 мес.
Сообщений: 23
Ratio: 701,771
Поблагодарили: 17
100%
russia.gif
а ктонибудь знает , а продолжение будет????
Показать сообщения:   
Начать новую тему   Ответить на тему    Торрент-трекер NNM-Club -> Отечественные сериалы Часовой пояс: GMT + 3
Страница 1 из 1