Классический форум-трекер
canvas not supported
Нас вместе: 4 114 400

Огненная корона / Coroana de foc (1990) DVDRip


 
 
RSS
Начать новую тему   Ответить на тему    Торрент-трекер NNM-Club -> Классика кино и Старые фильмы до 90-х -> Старые Зарубежные Фильмы (HD*Rip/LQ, DVDRip, SATRip, VHSRip)
Автор Сообщение
W.K. ®
Стаж: 9 лет 2 мес.
Сообщений: 639
Ratio: 255,906
Поблагодарили: 23334
100%
ussr.gif
Огненная корона / Coroana de foc (1990) DVDRip
Русское название: Огненная корона
Оригинальное название: Coroana de foc
Год выпуска: 1990
Жанр: Исторический
Производство: Румыния

Описание фильма:
Время рыцарей, чести и в то же время, жестоких нравов: брат идет войной на брата, проливается кровь невинных младенцев... Но бремя благородности все же есть кому нести... Спасая младенца, обреченного на гибель , в свое время присягнувший на верность королю, капитан Гарун тем самым, обрекает на смерть себя. Но вмешивается Время (в данной киноленте - одушевленный персонаж) - и капитану отведен дополнительный срок для воспитания будущего наследника престола. В это время, второй брат (по закону жанра злой, подлый и кровожадный) стремится отвоевать корону у своего родителя. Его манит золотая корона и волшебные мечи, хранящиеся в пещере - но завладеть сокровищами не просто - ими может воспользоваться только самый достойный - не проливший невинной крови

Режиссер: Серджиу Николаеску
Актеры: Василь Альбинет, Джеордже Александру, Владимир Гайтан, Мануэла Харабор, Рамона Ионеску, Серджиу Николаеску, Стефан Вельнициюк.

Продолжительность: 01:35:53
Перевод: Дублированный



Видеокодек: Xvid
Битрейт видео: ~1972 кбит/сек
Размер кадра: 704х512
Качество видео: DVDRip
Аудиокодек: AC3 , 2.0
Битрейт аудио: 192 Кбит/сек
Общее
Полное имя : C:\Documents and Settings\Admin\Мои документы\Downloads\ognennaya korona .avi
Формат : AVI
Формат/Информация : Audio Video Interleave
Размер файла : 1,46 Гбайт
Продолжительность : 1 ч. 35 м.
Общий поток : 2174 Кбит/сек
Программа кодирования : VirtualDubMod 1.5.10.2 (build 2540/release)
Библиотека кодирования : VirtualDubMod build 2540/release

Видео
Идентификатор : 0
Формат : MPEG-4 Visual
Профиль формата : Advanced Simple@L5
Параметр BVOP формата : 2
Параметр QPel формата : Нет
Параметр GMC формата : Без точки перехода
Параметр матрицы формата : Выборочная
Идентификатор кодека : XVID
Идентификатор кодека/Подсказка : XviD
Продолжительность : 1 ч. 35 м.
Битрейт : 1972 Кбит/сек
Ширина : 704 пикс.
Высота : 512 пикс.
Соотношение сторон : 1,375
Частота кадров : 25,000 кадр/сек
Цветовое пространство : YUV
Подвыборка цветности : 4:2:0
Битовая глубина : 8 бит
Тип развёртки : Прогрессивная
Метод сжатия : С потерями
Бит/(Пиксели*Кадры) : 0.219
Размер потока : 1,32 Гбайт (91%)
Библиотека кодирования : XviD 1.2.1 (UTC 2008-12-04)

Аудио
Идентификатор : 1
Формат : AC-3
Формат/Информация : Audio Coding 3
Расширение режима : CM (complete main)
Идентификатор кодека : 2000
Продолжительность : 1 ч. 35 м.
Вид битрейта : Постоянный
Битрейт : 192 Кбит/сек
Каналы : 2 канала
Расположение каналов : Front: L R
Частота : 48,0 КГц
Битовая глубина : 16 бит
Метод сжатия : С потерями
Размер потока : 132 Мбайт (9%)
Выравнивание : Разделение по промежуткам
Продолжительность промежутка : 40 мс. (1,00 видеокадр)
Время предзагрузки промежутка : 500 ms
Скриншоты:


Время раздачи: с 23:00 до 07:00,днем по мере возможности
[NNM-Club.ru]_ognennaya korona .avi.torrent
 Торрент: Платиновая раздача  Зарегистрирован
 
Скачать


Примагнититься
 Зарегистрирован:   30 Июл 2011 12:29:11
 Размер:   1,46 GB  (
 Рейтинг:    (Голосов: 7)
 Поблагодарили:   42
 Проверка:   Оформление проверено модератором 30 Июл 2011 22:52:45
Как cкачать  ·  Как раздать  ·  Правильно оформить  ·  Поднять ратио!  

_________________
BozelMan
 
Стаж: 12 лет 11 мес.
Сообщений: 396
Ratio: 4,606
Поблагодарили: 1106
100%
Откуда: Lemuria
nepal.gif
:стеб:
19lom52

Online
Стаж: 9 лет 10 мес.
Сообщений: 23
Ratio: 49,297
100%
Откуда: Чернигов
ukraine.gif
:respekt: :respekt:
сосново
Стаж: 8 лет 9 мес.
Сообщений: 2
Ratio: 31,202
100%
Откуда: из Северной Венеции
встаньте на раздачу пожалуйста, заранее большое спасибо.
Показать сообщения:   
Начать новую тему   Ответить на тему    Торрент-трекер NNM-Club -> Классика кино и Старые фильмы до 90-х -> Старые Зарубежные Фильмы (HD*Rip/LQ, DVDRip, SATRip, VHSRip) Часовой пояс: GMT + 3
Страница 1 из 1