Классический форум-трекер
canvas not supported
Нас вместе: 4 104 136

Косвенные улики (2005) DVDRip [8 серии из 8]


 
 
RSS
Начать новую тему   Ответить на тему    Торрент-трекер NNM-Club -> Отечественные сериалы
Автор Сообщение
bacchus ®
Стаж: 10 лет 6 мес.
Сообщений: 1625
Ratio: 93,086
Поблагодарили: 183459
100%
Откуда: Винница
ukraine.gif
Косвенные улики (2005) DVDRip [8 серии из 8]
Русское название: Косвенные улики
Год выпуска: 2005
Выпущено: ЗАО «Кинокомпания ДомФильм» / ЗАО «МостВидеоФильм»
Жанр: Детектив

Релиз группа: kinozaltv
Дата выхода DVD релиза: 6 августа 2009, «Русское счастье»

Режиссер: Вячеслав Криштофович
Актеры: Сергей Маковецкий, Светлана Рябова, Сергей Никоненко, Сергей Чонишвили, Лариса Шахворостова, Эвклид Кюрдзидис, Лариса Руснак, Диана Рудыченко, Виктория Малекторович, Владимир Стержаков, Олег Масленников, Валентин Шестопалов, Тамара Морозова, Ольга Стетюха, Олег Замятин

Описание фильма:
Совершено дерзкое преступление. Meтoд, кoтopый избpaл пpecтyпник, oпиcaн в нoвoй, eщe нe oпyбликoвaннoй, книгe извecтнoгo пиcaтeля Игopя Фeoнoвa. У cлeдoвaтeлeй вoзникaeт пoдoзpeниe, что cтoль иcкycнoe пpecтyплeниe мoг coвepшить тoлькo тoт, ктo eгo пpидyмaл. Cтaв глaвным пoдoзpeвaeмым в этoм дeлe, Фeoнoв нe мoжeт oпpaвдaтьcя - тaйнa coздaния нoвoй дeтeктивнoй пoвecти cвязывaeт пиcaтeля пo pyкaми и нoгaм.

Продолжительность: 8 x ~ 00:49:30
Качество видео: DVDRip
Сэмпл Ковер
Видеокодек: Xvid
Битрейт видео: ~1447 kb/s
Размер кадра: 704x512
Аудиокодек: AC3 2.0
Битрейт аудио: 192.00 kb/s
Общее
Полное имя : E:\Фильмы\Kosvennye.uliki.(8.serij.iz.8).2005.DVDRip\1.serija.avi
Формат : AVI
Формат/Информация : Audio Video Interleave
Размер файла : 571 Мбайт
Продолжительность : 48 м.
Общий поток : 1649 Кбит/сек
Программа кодирования : FairUse Wizard - http://fairusewizard.com
Библиотека кодирования : VirtualDub build 28312/release

Видео
Идентификатор : 0
Формат : MPEG-4 Visual
Профиль формата : Advanced Simple@L5
Параметр BVOP формата : 1
Параметр QPel формата : Нет
Параметр GMC формата : Без точки перехода
Параметр матрицы формата : Default (MPEG)
Режим смешивания : Сжатый битовый поток
Идентификатор кодека : XVID
Идентификатор кодека/Подсказка : XviD
Продолжительность : 48 м.
Битрейт : 1447 Кбит/сек
Ширина : 704 пикс.
Высота : 512 пикс.
Соотношение сторон : 1,375
Частота кадров : 25,000 кадр/сек
Цветовое пространство : YUV
Подвыборка цветности : 4:2:0
Битовая глубина : 8 бит
Тип развёртки : Прогрессивная
Метод сжатия : С потерями
Бит/(Пиксели*Кадры) : 0.161
Размер потока : 501 Мбайт (88%)
Библиотека кодирования : XviD 1.2.0.dev47 (UTC 2006-11-01)

Аудио
Идентификатор : 1
Формат : AC-3
Формат/Информация : Audio Coding 3
Расширение режима : CM (complete main)
Идентификатор кодека : 2000
Продолжительность : 48 м.
Вид битрейта : Постоянный
Битрейт : 192 Кбит/сек
Каналы : 2 канала
Расположение каналов : Front: L R
Частота : 48,0 КГц
Битовая глубина : 16 бит
Метод сжатия : С потерями
Размер потока : 66,5 Мбайт (12%)
Выравнивание : Разделение по промежуткам
Продолжительность промежутка : 40 мс. (1,00 видеокадр)
Время предзагрузки промежутка : 500 ms


Время раздачи: С 07:30 до 00:00
[NNM-Club.ru]_Kosvennye.uliki.(8.serij.iz.8).2005.DVDRip.torrent
 Торрент: Платиновая раздача  Зарегистрирован
 
Скачать


 Зарегистрирован:   07 Авг 2011 12:07:52
 Размер:   4,28 GB  (
 Рейтинг:   4,1 (Голосов: 17)
 Поблагодарили:   83
 Проверка:   Оформление проверено модератором 08 Авг 2011 03:49:46
Как cкачать  ·  Как раздать  ·  Правильно оформить  ·  Поднять ратио!  

_________________
Vovan1965
Стаж: 10 лет 5 мес.
Сообщений: 162
Ratio: 186,383
100%
ukraine.gif
Фильм так себе, еле до конца досмотрелся, нудно...
Автору спасибо за релиз
Показать сообщения:   
Начать новую тему   Ответить на тему    Торрент-трекер NNM-Club -> Отечественные сериалы Часовой пояс: GMT + 3
Страница 1 из 1