Классический форум-трекер
canvas not supported
Нас вместе: 4 133 776

Завещание Ленина (12 серий из 12) (2007) DVDRip


 
 
RSS
Начать новую тему   Ответить на тему    Торрент-трекер NNM-Club -> Отечественные сериалы
Автор Сообщение
Sедой ®
Стаж: 10 лет 3 мес.
Сообщений: 3057
Ratio: 5117,534
Поблагодарили: 645535
100%
Откуда: Донецк
Завещание Ленина (12 серий из 12) (2007) DVDRip
Русское название: Завещание Ленина
Страна: Россия
Год выпуска: 2007
Жанр: Биография, драма, исторический

Режиссер: Николай Досталь
Актеры: Александр Трофимов, Сергей Баталов, Роман Мадянов, Ирина Муравьева, Владимир Капустин, Александр Яценко, Валерий Золотухин, Владимир Конкин, Игорь Класс, Данила Козловский, Елена Лядова.

Описание фильма:
Фильм посвящается 100-летию со дня рождения Варлама Шаламова. Автор автобиографических «Колымских рассказов» Варлам Шаламов провел 17 лет в лагерях на Колыме, куда он попал за распространение письма Владимира Ленина съезду партии с критикой Сталина. Впоследствии именно это письмо и назвали «Завещание Ленина». Но сталинский режим карает молодого коммуниста, и он надолго оказывается в магаданском лагере..



Дата российской премьеры: 04.06.2007
Дата выхода DVD: 17.12.2009 «Русское счастье»

Продолжительность: 08:51:49
Перевод: Не требуется
Качество видео: DVDRip

Видеокодек: Xvid
Битрейт видео: ~1296 kbit/s
Размер кадра: 704 x 432
Аудиокодек: AC3, 5.1
Битрейт аудио: 448 kbit/s
Сэмпл: Скачать
Общее
Полное имя : D:\Торренты\Завещание Ленина\Завещание Ленина.02.avi
Формат : AVI
Формат/Информация : Audio Video Interleave
Размер файла : 565 Мбайт
Продолжительность : 45 м.
Общий поток : 1754 Кбит/сек
Программа кодирования : VirtualDubMod 1.5.10.2 (build 2540/release)
Библиотека кодирования : VirtualDubMod build 2540/release

Видео
Идентификатор : 0
Формат : MPEG-4 Visual
Профиль формата : Advanced Simple@L5
Параметр BVOP формата : 1
Параметр QPel формата : Нет
Параметр GMC формата : Без точки перехода
Параметр матрицы формата : Выборочная
Идентификатор кодека : XVID
Идентификатор кодека/Подсказка : XviD
Продолжительность : 45 м.
Битрейт : 1296 Кбит/сек
Ширина : 704 пикс.
Высота : 432 пикс.
Соотношение сторон : 1,630
Частота кадров : 25,000 кадр/сек
Цветовое пространство : YUV
Подвыборка цветности : 4:2:0
Битовая глубина : 8 бит
Тип развёртки : Прогрессивная
Метод сжатия : С потерями
Бит/(Пиксели*Кадры) : 0.171
Размер потока : 418 Мбайт (74%)
Библиотека кодирования : XviD 1.2.1 (UTC 2008-12-04)

Аудио
Идентификатор : 1
Формат : AC-3
Формат/Информация : Audio Coding 3
Расширение режима : CM (complete main)
Идентификатор кодека : 2000
Продолжительность : 45 м.
Вид битрейта : Постоянный
Битрейт : 448 Кбит/сек
Каналы : 6 каналов
Расположение каналов : Front: L C R, Side: L R, LFE
Частота : 48,0 КГц
Битовая глубина : 16 бит
Метод сжатия : С потерями
Размер потока : 144 Мбайт (26%)
Выравнивание : Соединение по промежуткам
Продолжительность промежутка : 40 мс. (1,00 видеокадр)
Время предзагрузки промежутка : 512 ms


Время раздачи: 24/7 по возможности
[NNM-Club.ru]_Zaveshchanie Lenina.torrent
 Торрент: Платиновая раздача  Зарегистрирован
 
Скачать


 Зарегистрирован:   12 Авг 2011 12:35:44
 Размер:   6,51 GB  (
 Рейтинг:   4,5 (Голосов: 89)
 Поблагодарили:   387
 Проверка:   Оформление проверено модератором 12 Авг 2011 14:31:20
Как cкачать  ·  Как раздать  ·  Правильно оформить  ·  Поднять ратио!  
weather
 
Стаж: 9 лет 9 мес.
Сообщений: 1002
Ratio: 16,218
Раздал: 65,81 TB
Поблагодарили: 3895
100%
kyrgyzstan.gif
Николай Досталь!!!
Этого режиссера НУЖНО смотреть - он фуфло не снимает!!!
Только "Штрафбат" чего стоит...

_________________
Добрых людей на путях ваших!
Leo Taxil
Только чтение
Стаж: 10 лет 6 мес.
Сообщений: 223
Ratio: 2,56
100%
ussr.gif
Неужели еще кто-то клюет на подобную туфту?
Vugluscr
Стаж: 10 лет 8 мес.
Сообщений: 879
Ratio: 2,167
100%
confederate.gif
Фильм не для идиотов.
zaratustra1964
Стаж: 13 лет 10 мес.
Сообщений: 8
Ratio: 5,534
65.57%
russia.gif
Спасибо, очень люблю творчество Досталя.
alauda1038
Стаж: 11 лет 9 мес.
Сообщений: 467
Ratio: 7,376
0.13%
Откуда: Санкт-Петербург
russia.gif
Николай Досталь он же гонит всякую хрень на нтв где Россия страна хорошая а русские плохой народ,Сталина еще не похоронили а архивы и дела стали подчищать и получилось что все кто сидел хорошие а те кто сажал плохие,в википедии сказано чем он занимался подобное во всех странах преследуется почему же Сталину это было нельзя?
boroda163
Стаж: 9 лет 9 мес.
Сообщений: 90
Ratio: 38,587
Поблагодарили: 84
100%
Откуда: Самара
russia.gif
Что- бы не говорили а Досталь "снимать" может, чего не скажешь о большинстве "наших" режисёров!
Тема правда "склизкая", не каждому по нутру, вон какую склоку устроили!
Куда проще "Универов" смотреть или "Папины дочки": посмотрел(если не стошнило от увиденного), посмеялся и никого обижать не хочется ни Сталина, ни Черчиля!
А любителям делать выводы (исторические или политические) основываясь на художественной литературе или кинематографе советую не выносить их (выводы) дальше собственных кухонь!
:огорчение:
Vugluscr
Стаж: 10 лет 8 мес.
Сообщений: 879
Ratio: 2,167
100%
confederate.gif
А некоторые "выводы" достойны направиться прямым ходом в унитаз, чтобы не смердили.
Andy4@4
Стаж: 9 лет 7 мес.
Сообщений: 14
Ratio: 30,625
100%
russia.gif
Думаю, каждый уважающий историю нашей страны, обязан увидеть этот фильм, чтобы знать, что эти люди действительно были и какая судьба им была уготована.
Andy4@4
Стаж: 9 лет 7 мес.
Сообщений: 14
Ratio: 30,625
100%
russia.gif
всем спасибо, я все скачал и остаюсь на раздаче. =)
alexei166
Стаж: 9 лет
Сообщений: 2
Ratio: 52,841
0%
russia.gif
ну коли стока споров значит качать надо и смотреть. =)
sercvet
Стаж: 11 лет
Сообщений: 37
Ratio: 0,452
100%
Откуда: Питер
russia.gif
СУПЕР! СПАСИБО!
pndm
Стаж: 9 лет 6 мес.
Сообщений: 234
Ratio: 2,84
100%
russia.gif
Великолепный фильм. И ...очень страшный! Спасибо огромное.
alex0212
Стаж: 13 лет 9 мес.
Сообщений: 31
Ratio: 39,744
Раздал: 31,42 TB
Поблагодарили: 16
7.38%
russia.gif
weather писал(а): Перейти к сообщению
Николай Досталь!!!
Этого режиссера НУЖНО смотреть - он фуфло не снимает!!!
Только "Штрафбат" чего стоит...


Тогда не буду качать, раз от автора "Штрафбата", бредовей только михалковское УГ и УГ2.
Показать сообщения:   
Начать новую тему   Ответить на тему    Торрент-трекер NNM-Club -> Отечественные сериалы Часовой пояс: GMT + 3
Страница 1 из 1