Классический форум-трекер
canvas not supported
Нас вместе: 4 078 123

C.C. Catch - Super Disco Hits (1989) [FLAC|Lossless]<Disco, Euro-Disco>


 
 
RSS
Начать новую тему   Ответить на тему    Торрент-трекер NNM-Club -> Pop -> Disco, Italo-Disco, Euro-Disco, Hi-NRG (Lossless)
Автор Сообщение
Nick07 ®
Стаж: 9 лет 4 мес.
Сообщений: 47
Ratio: 5,555
Поблагодарили: 2882
russia.gif
C.C. Catch - Super Disco Hits (1989)
Год: 1989
Жанр: Disco, Euro-Disco
Продолжительность: 01:00:36

Кодек: FLAC
Битрейт: Lossless
Тип раздачи: image+.cue
Наличие сканов в содержимом раздачи: да
Формат: CD, Compilation
Страна-производитель диска: Germany
Издатель (лейбл): Ariola Express
Номер по каталогу: 295 504

Треклист:
01. Heartbreak Hotel (''Room 69'' Mix) [04:55]
02. One Night's Not Enough (Maxi Version) [05:17]
03. Back Seat Of Your Cadillac [05:21]
04. I Can Lose My Heart Tonight (Extended Club Remix) [05:54]
05. Soul Survivor (Long Verision - Survivor Mix) [05:12]
06. Are You Man Enough (Long Version - Muscle Mix) [06:04]
07. 'Cause You Are Young (Maxi Version) [04:55]
08. Heaven And Hell (12'' Version) [05:14]
09. House Of Mystic Lights (Long Version Dance Mix) [04:10]
10. Hollywood Nights [02:57]
11. Midnight Gambler [05:15]
12. You Shot A Hole In My Soul [05:16]
Код:

Exact Audio Copy V0.99 prebeta 5 from 4. May 2009

Отчёт EAC об извлечении, выполненном 30. октября 2009, 0:19

C.C. Catch / Super Disco Hits

Дисковод: ASUS DRW-2014S1T Adapter: 1 ID: 0

Режим чтения : Достоверность
Использование точного потока : Да
Отключение кэша аудио : Да
Использование указателей C2 : Нет

Коррекция смещения при чтении : 6
Способность читать области Lead-in и Lead-out : Нет
Заполнение пропущенных сэмплов тишиной : Да
Удаление блоков с тишиной в начале и конце : Нет
При вычислениях CRC использовались нулевые сэмплы : Да
Интерфейс : Установленный внешний ASPI-интерфейс

Выходной формат : Внутренние WAV-операции
Формат сэмплов : 44.100 Гц; 16 бит; стерео

TOC извлечённого CD

Трек | Старт | Длительность | Начальный сектор | Конечный сектор
---------------------------------------------------------------------
1 | 0:00.00 | 4:58.02 | 0 | 22351
2 | 4:58.02 | 5:20.53 | 22352 | 46404
3 | 10:18.55 | 5:24.57 | 46405 | 70761
4 | 15:43.37 | 5:57.03 | 70762 | 97539
5 | 21:40.40 | 5:16.12 | 97540 | 121251
6 | 26:56.52 | 6:07.53 | 121252 | 148829
7 | 33:04.30 | 4:57.35 | 148830 | 171139
8 | 38:01.65 | 5:16.22 | 171140 | 194861
9 | 43:18.12 | 4:12.73 | 194862 | 213834
10 | 47:31.10 | 2:59.45 | 213835 | 227304
11 | 50:30.55 | 5:19.17 | 227305 | 251246
12 | 55:49.72 | 5:16.20 | 251247 | 274966

Характеристики диапазона извлечения и сообщения об ошибках

Выбранный диапазон

Имя файла E:\~ C.C. Catch ~\1989- Super Disco Hits (Ariola, 295 504)\C.C. Catch - Super Disco Hits.wav

Пиковый уровень 100.0 %
Качество диапазона 100.0 %
CRC теста AF02B9E2
CRC копии AF02B9E2
Копирование... OK

Ошибок не произошло

AccurateRip: сводка

Трек 1 точное извлечение (доверие 11) [C70F61BC]
Трек 2 точное извлечение (доверие 11) [AACD129A]
Трек 3 точное извлечение (доверие 11) [F654D4C0]
Трек 4 точное извлечение (доверие 12) [AC601399]
Трек 5 точное извлечение (доверие 11) [57A64942]
Трек 6 точное извлечение (доверие 12) [BB88D1EB]
Трек 7 точное извлечение (доверие 12) [3DA6DF92]
Трек 8 точное извлечение (доверие 12) [8C820BBF]
Трек 9 точное извлечение (доверие 11) [744C8317]
Трек 10 точное извлечение (доверие 11) [DEE1C977]
Трек 11 точное извлечение (доверие 11) [DA2B8608]
Трек 12 точное извлечение (доверие 12) [CF6CED8D]

Все треки извлечены точно

Конец отчёта

Код:

-----------------------

DON'T MODIFY THIS FILE

-----------------------

PERFORMER: auCDtect Task Manager, ver. 1.0.1 RC1 build 1.0.1.1
Copyright (c) 2008, 2009 y-soft. All rights reserved
http://y-soft.110mb.com

ANALYZER: auCDtect: CD records authenticity detector, version 0.8.2
Copyright (c) 2004 Oleg Berngardt. All rights reserved.
Copyright (c) 2004 Alexander Djourik. All rights reserved.

FILE: C.C. Catch - Super Disco Hits.flac
  Size: 431250389 Hash: E0ADE8EFA7FAF998617B11D23192F9D5 Accuracy: -m8
  Conclusion: CDDA 100%
  Signature: 4ECB3C40AD46C478782F59B7019AD95D1305CEDA
Код:
REM GENRE EuroDisco
REM DATE 1989
REM DISCID 8A0E520C
REM COMMENT "ExactAudioCopy v0.99pb5"
PERFORMER "C.C. Catch"
TITLE "Super Disco Hits"
FILE "C.C. Catch - Super Disco Hits.flac" WAVE
  TRACK 01 AUDIO
    TITLE "Heartbreak Hotel (''Room 69'' Mix)"
    PERFORMER "C.C. Catch"
    INDEX 01 00:00:00
  TRACK 02 AUDIO
    TITLE "One Night's Not Enough (Maxi Version)"
    PERFORMER "C.C. Catch"
    INDEX 00 04:55:15
    INDEX 01 04:58:02
  TRACK 03 AUDIO
    TITLE "Back Seat Of Your Cadillac"
    PERFORMER "C.C. Catch"
    INDEX 00 10:15:65
    INDEX 01 10:18:55
  TRACK 04 AUDIO
    TITLE "I Can Lose My Heart Tonight (Extended Club Remix)"
    PERFORMER "C.C. Catch"
    INDEX 00 15:40:50
    INDEX 01 15:43:37
  TRACK 05 AUDIO
    TITLE "Soul Survivor (Long Verision - Survivor Mix)"
    PERFORMER "C.C. Catch"
    INDEX 00 21:37:45
    INDEX 01 21:40:40
  TRACK 06 AUDIO
    TITLE "Are You Man Enough (Long Version - Muscle Mix)"
    PERFORMER "C.C. Catch"
    INDEX 00 26:52:60
    INDEX 01 26:56:52
  TRACK 07 AUDIO
    TITLE "'Cause You Are Young (Maxi Version)"
    PERFORMER "C.C. Catch"
    INDEX 00 33:01:50
    INDEX 01 33:04:30
  TRACK 08 AUDIO
    TITLE "Heaven And Hell (12'' Version)"
    PERFORMER "C.C. Catch"
    INDEX 00 38:00:17
    INDEX 01 38:01:65
  TRACK 09 AUDIO
    TITLE "House Of Mystic Lights (Long Version Dance Mix)"
    PERFORMER "C.C. Catch"
    INDEX 00 43:16:05
    INDEX 01 43:18:12
  TRACK 10 AUDIO
    TITLE "Hollywood Nights"
    PERFORMER "C.C. Catch"
    INDEX 00 47:28:60
    INDEX 01 47:31:10
  TRACK 11 AUDIO
    TITLE "Midnight Gambler"
    PERFORMER "C.C. Catch"
    INDEX 00 50:28:65
    INDEX 01 50:30:55
  TRACK 12 AUDIO
    TITLE "You Shot A Hole In My Soul"
    PERFORMER "C.C. Catch"
    INDEX 00 55:46:35
    INDEX 01 55:49:72
Время раздачи: С 17:00 до 21:00


Поглощение/вытеснение
Только с согласия релизера

DesideriuM

Реставрация релиза: DesideriuM
[NNM-Club.ru]_C.C. Catch - Super Disco Hits (1989).torrent
 Торрент: Платиновая раздача  Зарегистрирован
 
Скачать


 Зарегистрирован:   14 Авг 2011 14:09:35
 Размер:   427 MB  (
 Рейтинг:   4,8 (Голосов: 42)
 Поблагодарили:   135
 Проверка:   Оформление проверено модератором 14 Авг 2011 19:03:15
Как cкачать  ·  Как раздать  ·  Правильно оформить  ·  Поднять ратио!  
Ananerbi
Стаж: 9 лет 5 мес.
Сообщений: 89
Ratio: 5,758
100%
Откуда: от верблюда!
ussr.gif
Огромное спасибо! :респект: :стеб:
Dgonix
Стаж: 6 лет 8 мес.
Сообщений: 1628
Ratio: 103,934
Поблагодарили: 5395
100%
Откуда: Оренбург
russia.gif
Прекрасные композиции.
SKVSM
Покровитель талантов
Uploader 100+
 
Стаж: 8 лет 11 мес.
Сообщений: 1051
Ratio: 282,733
Поблагодарили: 19859
100%
nnm-club.gif
Nakamura79
Стаж: 1 год 8 мес.
Сообщений: 12
Раздал: 0
100%
Откуда: Краснодар
russia.gif
Королева 👸🎤 Диско! СУПЕР! Спасибо за качественный альбом! :приветствую: :клево: :подмигивание: :супер!: :НГ_прыжок:
Показать сообщения:   
Начать новую тему   Ответить на тему    Торрент-трекер NNM-Club -> Pop -> Disco, Italo-Disco, Euro-Disco, Hi-NRG (Lossless) Часовой пояс: GMT + 3
Страница 1 из 1