Классический форум-трекер
canvas not supported
Нас вместе: 4 083 482
Платим за отзывы

Уроки тетушки Совы. Весёлое новогоднее путешествие (2006) DVD-5


 
 
RSS
Начать новую тему   Ответить на тему    Торрент-трекер NNM-Club -> Видео -> Развивающее Видео для детей
Автор Сообщение
laforsh ®
Модератор Детских Игр
RG Всё лучшее - детям!
 
Стаж: 10 лет 8 мес.
Сообщений: 1472
Ratio: 1029,716
Поблагодарили: 33238
100%
cuba.gif
Уроки тетушки Совы. Весёлое новогоднее путешествие (2006) DVD-5
Русское название: Уроки тетушки Совы / Весёлое новогоднее путешествие
Год выпуска: 2006
Жанр: Анимационный, Обучающая видеопрограмма ( 2-7 лет)
Производство: Творческое Объединение "Маски"
Режиссер: Сергей Зарев
Актеры: Тетушка Сова (Ольга Равицкая - голос)
Перевод: Оригинал - русский язык

Описание фильма:
Дорогие мамы и папы, дедушки и бабушки! Вы хотите, чтобы Ваш ребенок знал где и как встречают Новый Год? Этот развлекательно-обучающий диск с мультфильмами в простой и доступной форме с помощью сказочных персонажей расскажет об обычаях и традициях встречи Нового года в разных странах. Увлекательные уроки тетушки Совы полностью займут внимание Вашего малыша. Развлекаясь с героями мультфильмов, ребенок будет одновременно получать полезные знания, необходимые в его еще начинающейся жизни. Диск содержит 16 серий по 5 минут.

Продолжительность: 01:27:11
Качество видео: DVD-5
Видеокодек: MPEG Video
Размер кадра: 720x576
Качество кадра: 3794 Кбит/сек
Аудиокодек: AC-3
Битрейт аудио: 192 Кбит/сек
Полное имя : VIDEO_TS\VTS_01_1.VOB
Формат : MPEG-PS
Размер файла : 1024 Мбайт
Продолжительность : 35 м.
Общий поток : 4067 Кбит/сек

Видео
Идентификатор : 224 (0xE0)
Формат : MPEG Video
Версия формата : Version 2
Профиль формата : Main@Main
Параметр BVOP формата : Да
Параметр матрицы формата : По умолчанию
Параметры GOP формата : M=3, N=12
Продолжительность : 35 м.
Вид битрейта : Переменный
Битрейт : 3794 Кбит/сек
Максимальный битрейт : 8000 Кбит/сек
Ширина : 720 пикс.
Высота : 576 пикс.
Соотношение сторон : 4:3
Частота кадров : 25,000 кадр/сек
Стандарт вещания : PAL
Цветовое пространство : YUV
Подвыборка цветности : 4:2:0
Битовая глубина : 8 бит
Тип развёртки : Чересстрочная
Порядок развёртки : Нижнее поле первое
Метод сжатия : С потерями
Бит/(Пиксели*Кадры) : 0.366
Размер потока : 955 Мбайт (93%)

Аудио
Идентификатор : 189 (0xBD)-128 (0x80)
Формат : AC-3
Формат/Информация : Audio Coding 3
Расширение режима : CM (complete main)
Режим смешивания : DVD-Video
Продолжительность : 35 м.
Вид битрейта : Постоянный
Битрейт : 192 Кбит/сек
Каналы : 2 канала
Расположение каналов : Front: L R
Частота : 48,0 КГц
Битовая глубина : 16 бит
Метод сжатия : С потерями
Задержка видео : -80 мс.
Размер потока : 48,3 Мбайт (5%)
Title: _NNMClub_Uroki.tetushki.Sovy.Vesjoloe.novogodnee.puteshestvie.2006.DVD-5
Size: 4.12 Gb ( 4 319 748,00 KBytes ) - DVD-5
Enabled regions: 1, 2, 3, 4, 5, 6, 8

VTS_01 :
Play Length: 01:27:12+00:00:01+00:00:01
Video: PAL 4:3 (720x576) VBR
Audio:
Russian, AC3, 2/0 (L,R) ch, 192 kbps, Delay 0 mSec

VTS_02 :
Play Length: 00:00:01+00:07:17+00:00:01+00:05:32+00:00:01+00:05:00+00:00:01+00:05:12+00:00:01+00:05:31+00:00:01+00:05:34+00:00:01+00:05:14+00:00:01+00:05:16+00:00:01+00:00:01
Video: PAL 4:3 (720x576) VBR
Audio:
Russian (Dolby AC3, 2 ch)

VTS_03 :
Play Length: 00:01:03+00:00:01+00:02:52+00:00:01+00:01:50+00:00:01+00:00:01
Video: PAL 4:3 (720x576) VBR
Audio:
Russian (LinearPCM, 2 ch)
Russian (LinearPCM, 2 ch)

* Menus Information *

VIDEO_TS Menu
Video:
PAL 4:3 (720x576) VBR
Audio:
Not specified (Dolby AC3, 2 ch)
Russian Language Unit :
Title Menu

VTS_01 Menu
Video:
PAL 4:3 (720x576) VBR
Audio:
Not specified (Dolby AC3, 2 ch)
Russian Language Unit :
Root Menu

VTS_02 Menu
Video:
PAL 4:3 (720x576) VBR
Audio:
Not specified (Dolby AC3, 2 ch)
Russian Language Unit :
Root Menu

VTS_03 Menu
Video:
PAL 4:3 (720x576) VBR
Audio:
Not specified (Dolby AC3, 2 ch)
Russian Language Unit :
Root Menu
Скриншоты:







Время раздачи: 24/7 - Круглосуточно до 15 скачавших
[NNM-Club.ru]__NNMClub_Uroki.tetushki.Sovy.Vesjoloe.novogodnee.puteshestvie.2006.DVD-5.torrent
 Торрент: Платиновая раздача  Зарегистрирован
 
Скачать


Примагнититься
 Зарегистрирован:   17 Авг 2011 13:36:31
 Размер:   4,12 GB  (
 Рейтинг:   4,8 (Голосов: 36)
 Поблагодарили:   134
 Проверка:   Оформление проверено модератором 17 Авг 2011 18:40:46
Как cкачать  ·  Как раздать  ·  Правильно оформить  ·  Поднять ратио!  
Loading...
Показать сообщения:   
Начать новую тему   Ответить на тему    Торрент-трекер NNM-Club -> Видео -> Развивающее Видео для детей Часовой пояс: GMT + 3
Страница 1 из 1