Классический форум-трекер
canvas not supported
Нас вместе: 4 103 631

Черные береты (2005) TVRip


 
 
RSS
Начать новую тему   Ответить на тему    Торрент-трекер NNM-Club -> Документалистика и Телепередачи -> Военное дело
Автор Сообщение
fender. ®
Стаж: 9 лет 7 мес.
Сообщений: 718
Ratio: 44,262
Поблагодарили: 36878
100%
russia.gif
Черные береты (2005) TVRip
Русское название: Черные береты

Режиссер / Телекомпания: Юрий Белов
Год выпуска: 2005
Жанр: Документальный
В ролях: исследователи, военные

Описание:
В 1668 году в состав экипажа корабля «Орел» наряду с матросами и артиллеристами впервые была включена команда стрельцов. Задачи этой новоявленной команды были отражены в морском уставе того времени – «34 статьях артикулярных», как «захватывать вражеские корабли в абордажном бою». В ходе Северной войны со шведами морские стрельцы доказали свою необходимость, и 16 ноября 1705 года (эту дату и принято считать началом создания регулярной Российской морской пехоты) Петр I издал указ о формировании первого полка морских пехотинцев, который состоял из двух батальонов по пяти рот в каждом. Общая численность полка тогда составляла 1250 рядовых, 70 унтер-офицеров и 45 офицеров. Таким образом, первым флотом, в составе которого появилась морская пехота, стал Балтийский. Пехотинцы успешно действовали во всех боевых операциях русского флота, а также в ряде сухопутных сражений, например, в битве на Бородинском поле… В годы Великой Отечественной войны было проведено свыше 100 морских десантных операций с участием десятков тысяч морских пехотинцев. Немцы называли их «черной смертью»…

Продолжительность: 00:51:28
Страна: Россия
Перевод: Не требуется

Видеокодек: DivX 5
Битрейт видео: ~ 1 199 Kbps
Размер кадра: 640x480 (4:3), 25.000 fps
Качество видео: TVRip
Аудиокодек: MP3
Битрейт аудио: 44.1 KHz, 2 ch, 128 Kbps, CBR
Код:
Общее
Полное имя                       : C:\Users\hant\Videos\Документальные\Chernye.berety.2005.DivX.TVRip.avi
Формат                           : AVI
Формат/Информация                : Audio Video Interleave
Размер файла                     : 492 Мбайт
Продолжительность                : 51 м.
Общий поток                      : 1337 Кбит/сек
Библиотека кодирования           : VirtualDub build 15654/release

Видео
Идентификатор                    : 0
Формат                           : MPEG-4 Visual
Параметр BVOP формата            : 1
Параметр QPel формата            : Нет
Параметр GMC формата             : Без точки перехода
Параметр матрицы формата         : Default (H.263)
Режим смешивания                 : Сжатый битовый поток
Идентификатор кодека             : DX50
Идентификатор кодека/Подсказка   : DivX 5
Продолжительность                : 51 м.
Битрейт                          : 1199 Кбит/сек
Ширина                           : 640 пикс.
Высота                           : 480 пикс.
Соотношение сторон               : 4:3
Частота кадров                   : 25,000 кадр/сек
Цветовое пространство            : YUV
Подвыборка цветности             : 4:2:0
Битовая глубина                  : 8 бит
Тип развёртки                    : Прогрессивная
Метод сжатия                     : С потерями
Бит/(Пиксели*Кадры)              : 0.156
Размер потока                    : 441 Мбайт (90%)
Библиотека кодирования           : DivX 5.2.1 (WaffleDay) (UTC 2004-09-08)

Аудио
Идентификатор                    : 1
Формат                           : MPEG Audio
Версия формата                   : Version 1
Профиль формата                  : Layer 3
Режим                            : Joint stereo
Расширение режима                : MS Stereo
Идентификатор кодека             : 55
Идентификатор кодека/Подсказка   : MP3
Продолжительность                : 51 м.
Вид битрейта                     : Постоянный
Битрейт                          : 128 Кбит/сек
Каналы                           : 2 канала
Частота                          : 44,1 КГц
Метод сжатия                     : С потерями
Размер потока                    : 47,1 Мбайт (10%)
Выравнивание                     : Разделение по промежуткам
Продолжительность промежутка     : 40  мс. (1,00 видеокадр)
Время предзагрузки промежутка    : 473 ms


Скриншоты:






Время раздачи: 24/7
[NNM-Club.ru]_Chernye.berety.2005.DivX.TVRip.avi.torrent
 Торрент: Золотая раздача  Зарегистрирован
 
Зарегистрируйтесь и скачайте торрент!
19,6 KB
Free Leech
Примагнититься
 Зарегистрирован:   20 Авг 2011 22:30:31
 Размер:   492 MB  (
 Рейтинг:   4,5 (Голосов: 15)
 Поблагодарили:   60
 Проверка:   Оформление проверено модератором 20 Авг 2011 22:30:54
Как cкачать  ·  Как раздать  ·  Правильно оформить  ·  Поднять ратио!  
Показать сообщения:   
Начать новую тему   Ответить на тему    Торрент-трекер NNM-Club -> Документалистика и Телепередачи -> Военное дело Часовой пояс: GMT + 3
Страница 1 из 1