Классический форум-трекер
canvas not supported
Нас вместе: 4 093 324

Jimi Hendrix - Blues (1994) [APE|Lossless]<Blues, Blues-Rock>


 
 
RSS
Начать новую тему   Ответить на тему    Торрент-трекер NNM-Club -> Jazz, Blues, Soul -> Blues, Soul (Lossless)
Автор Сообщение
Doshik ®
Стаж: 9 лет 4 мес.
Сообщений: 1688
Ratio: 43,716
Поблагодарили: 92660
100%
barbados.gif
Jimi Hendrix - Blues (1994)
Год: 1994
Жанр: Blues, Blues-Rock
Продолжительность: 01:12:27
Label: Universal Music
Catalog #: MCAD11060

Кодек: APE
Битрейт: Lossless

Трек лист:
01. Hear My Train A Comin' (Acoustic) (3:06)
02. Born Under A Bad Sign (7:38)
03. Red House (3:43)
04. Catfish Blues (7:49)
05. Voodoo Chile Blues (8:48)
06. Mannish Boy (5:22)
07. Once I Had A Woman (7:50)
08. Bleeding Heart (3:27)
09. Jelly 292 (6:25)
10. Electric Church Red House (6:13)
11. Hear My Train A Comin' (Electric) (12:09)
Код:

EAC extraction logfile from 28. September 2006, 20:51 for CD
Jimi Hendrix / Blues

Used drive  : PIONEER DVD-RW  DVR-111D   Adapter: 1  ID: 0
Read mode   : Secure with NO C2, accurate stream, disable cache
Read offset correction : 48
Overread into Lead-In and Lead-Out : Yes

Used output format : C:\Program Files\FLAC\flac.exe   (User Defined Encoder)
                     128 kBit/s
                     Additional command line options : -8 -V -T "ARTIST=%a" -T "TITLE=%t" -T "ALBUM=%g" -T "DATE=%y" -T "TRACKNUMBER=%n" -T "GENRE=%m" -T "COMMENT=EAC Flac 1.1.2" %s

Other options      :
    Fill up missing offset samples with silence : Yes
    Delete leading and trailing silent blocks : No
    Installed external ASPI interface

Track  1
     Filename D:\Hendrix, James Marshall - Experience Hendrix Blues (1994) [FLAC] {MCAD-11060 Universal}\01 - Hear My Train A Comin' [Acoustic].wav

     Pre-gap length  0:00:02.00

     Peak level 94.4 %
     Track quality 100.0 %
     Test CRC 0284F5CA
     Copy CRC 0284F5CA
     Copy OK

Track  2
     Filename D:\Hendrix, James Marshall - Experience Hendrix Blues (1994) [FLAC] {MCAD-11060 Universal}\02 - Born Under A Bad Sign.wav

     Peak level 94.4 %
     Track quality 100.0 %
     Test CRC 47AC876F
     Copy CRC 47AC876F
     Copy OK

Track  3
     Filename D:\Hendrix, James Marshall - Experience Hendrix Blues (1994) [FLAC] {MCAD-11060 Universal}\03 - Red House.wav

     Peak level 90.0 %
     Track quality 100.0 %
     Test CRC 1DC294BF
     Copy CRC 1DC294BF
     Copy OK

Track  4
     Filename D:\Hendrix, James Marshall - Experience Hendrix Blues (1994) [FLAC] {MCAD-11060 Universal}\04 - Catfish Blues.wav

     Peak level 94.4 %
     Track quality 100.0 %
     Test CRC E1ADF3C6
     Copy CRC E1ADF3C6
     Copy OK

Track  5
     Filename D:\Hendrix, James Marshall - Experience Hendrix Blues (1994) [FLAC] {MCAD-11060 Universal}\05 - Voodoo Chile Blues.wav

     Pre-gap length  0:00:01.42

     Peak level 94.4 %
     Track quality 100.0 %
     Test CRC A7AEE1DD
     Copy CRC A7AEE1DD
     Copy OK

Track  6
     Filename D:\Hendrix, James Marshall - Experience Hendrix Blues (1994) [FLAC] {MCAD-11060 Universal}\06 - Mannish Boy.wav

     Peak level 94.4 %
     Track quality 100.0 %
     Test CRC 51CC3BE4
     Copy CRC 51CC3BE4
     Copy OK

Track  7
     Filename D:\Hendrix, James Marshall - Experience Hendrix Blues (1994) [FLAC] {MCAD-11060 Universal}\07 - Once I Had A Woman.wav

     Peak level 94.4 %
     Track quality 100.0 %
     Test CRC 556F3AC8
     Copy CRC 556F3AC8
     Copy OK

Track  8
     Filename D:\Hendrix, James Marshall - Experience Hendrix Blues (1994) [FLAC] {MCAD-11060 Universal}\08 - Bleeding Heart.wav

     Peak level 94.4 %
     Track quality 99.9 %
     Test CRC 35046D7E
     Copy CRC 35046D7E
     Copy OK

Track  9
     Filename D:\Hendrix, James Marshall - Experience Hendrix Blues (1994) [FLAC] {MCAD-11060 Universal}\09 - Jelly 292.wav

     Pre-gap length  0:00:01.06

     Peak level 94.4 %
     Track quality 100.0 %
     Test CRC 78787761
     Copy CRC 78787761
     Copy OK

Track 10
     Filename D:\Hendrix, James Marshall - Experience Hendrix Blues (1994) [FLAC] {MCAD-11060 Universal}\10 - Electric Church Red House.wav

     Peak level 91.8 %
     Track quality 100.0 %
     Test CRC 7D23E1E3
     Copy CRC 7D23E1E3
     Copy OK

Track 11
     Filename D:\Hendrix, James Marshall - Experience Hendrix Blues (1994) [FLAC] {MCAD-11060 Universal}\11 - Hear My Train A Comin' [Electric].wav

     Peak level 94.4 %
     Track quality 99.9 %
     Test CRC E08E8912
     Copy CRC E08E8912
     Copy OK

No errors occured

End of status report
Код:

-----------------------

DON'T MODIFY THIS FILE

-----------------------

PERFORMER: auCDtect Task Manager, ver. 1.5.1RC4 build 1.5.1.5
Copyright (c) 2008-2010 y-soft. All rights reserved
http://y-soft.org

ANALYZER: auCDtect: CD records authenticity detector, version 0.8.2
Copyright (c) 2004 Oleg Berngardt. All rights reserved.
Copyright (c) 2004 Alexander Djourik. All rights reserved.

FILE: CDImage.ape
  Size: 418101576 Hash: 685DEF2D7CF3B6F797D8A077604BA25D Accuracy: -m8
  Conclusion: CDDA 100%
  Signature: 7DC29DC6EEC05282E6B1C50A8A1C74E6DB5BDEEE
Время раздачи: 24/7
Jimi_Hendrix[nnm-club.ru].torrent
 Торрент: Платиновая раздача  Зарегистрирован
 
Скачать


 Зарегистрирован:   22 Авг 2011 10:57:05
 Размер:   419 MB  (
 Рейтинг:   4,4 (Голосов: 15)
 Поблагодарили:   51
 Проверка:   Оформление проверено модератором 23 Авг 2011 00:04:24
Как cкачать  ·  Как раздать  ·  Правильно оформить  ·  Поднять ратио!  
4EXTbI
 
Стаж: 8 лет 7 мес.
Сообщений: 6980
Ratio: 420,861
Раздал: 83,94 TB
100%
Откуда: Море Байкал ®
ussr.gif
Никто не помнит Джимми Хэндрикса?... :шок:
Doshik ®
Стаж: 9 лет 4 мес.
Сообщений: 1688
Ratio: 43,716
Поблагодарили: 92660
100%
barbados.gif
Jimi Hendrix-а помнят все!!
Aleksend
Стаж: 9 лет 2 мес.
Сообщений: 39
Ratio: 56,045
Поблагодарили: 157
100%
Откуда: Donetsk
ukraine.gif
4EXTbI писал(а): Перейти к сообщению
Никто не помнит Джимми Хэндрикса?... :шок:

как такое можно забыть!!!, и как такое можно сказать...:)), Джими Навсегда!!!
Показать сообщения:   
Начать новую тему   Ответить на тему    Торрент-трекер NNM-Club -> Jazz, Blues, Soul -> Blues, Soul (Lossless) Часовой пояс: GMT + 3
Страница 1 из 1