Классический форум-трекер
canvas not supported
Нас вместе: 4 079 252

2199: Космическая одиссея / Space Battleship Yamato (2010) DVD9


 
 
RSS
Начать новую тему   Ответить на тему    Торрент-трекер NNM-Club -> Зарубежное кино -> Азиатское кино (DVD)
Автор Сообщение
Demasik ®
Стаж: 9 лет 1 мес.
Сообщений: 533
Ratio: 81,908
Поблагодарили: 34298
100%
russia.gif
2199: Космическая одиссея / Space Battleship Yamato (2010) DVD9
Русское название: 2199: Космическая одиссея
Оригинальное название: Space Battleship Yamato
Год выпуска: 2010
Производство: Япония
Студия: Abe Shuji, Chubu-nippon Broadcasting Company (CBC), Hakuhodo DY Media Partners
Бюджет: $25 000 000
Жанр: Фантастика, Боевик, Драма, Приключения
Перевод: Дублированный [лицензия]
Субтитры: нет




Дата мировой премьеры: 1 декабря 2010
Дата российской премьеры: 21 июля 2011, «Кинопром»
Дата выхода DVD релиза: 18 августа 2011, «Мистерия Звука»

Режиссер: Такаши Ямазаки
Продюсер: Тошиаки Наказава, Казуя Хамана
Актеры: Такуя Кимура, Меиса Куроки, Тоширо Янагиба, Наото Огата, Хироюки Икеучи, Синъити Цуцуми, Маико, Рейко Такашима, Тошиюки Нишида, Тошихиро Яшиба

Описание фильма:
Космический линкор «Ямато» отправляется в опасную космическую экспедицию. Его цель — планета Искандер, которая является последней надеждой разоренной и отравленной радиацией, планеты Земля. Война с далекими пришельцами не прошла бесследно: бескрайние пустыни и разрушенные города, повсеместные мутации, высокий радиационный уровень атмосферы. Планета Искандер хранит нейтрализатор и только он может помочь нашей Родине…


Продолжительность: 02:12:56
Качество видео: DVD9

Видеокодек: MPEG-2
Битрейт видео: ~6682 kb/s
Размер кадра: PAL 16:9 (720x576)
Аудиокодек и битрейт аудио: Русский ( AC3, 6 ch, 448 kb/s )
Дополнительно: нет

Общее
Полное имя : D:\2199. Космическая одиссея\2199. Космическая одиссея DVD9\VIDEO_TS\VTS_02_1.VOB
Формат : MPEG-PS
Размер файла : 1024 Мбайт
Продолжительность : 19 м.
Общий поток : 7275 Кбит/сек

Видео
Идентификатор : 224 (0xE0)
Формат : MPEG Video
Версия формата : Version 2
Профиль формата : Main@Main
Параметр BVOP формата : Да
Параметр матрицы формата : Выборочная
Продолжительность : 19 м.
Вид битрейта : Переменный
Битрейт : 6682 Кбит/сек
Максимальный битрейт : 8500 Кбит/сек
Ширина : 720 пикселей
Высота : 576 пикселей
Соотношение сторон : 16:9
Частота кадров : 25,000 кадров/сек
Стандарт вещания : PAL
Цветовое пространство : YUV
Субдискретизация насыщенности : 4:2:0
Битовая глубина : 8 бит
Тип развёртки : Прогрессивная
Метод сжатия : С потерями
Бит/(Пиксели*Кадры) : 0.644
Размер потока : 940 Мбайт (92%)

Аудио
Идентификатор : 189 (0xBD)-128 (0x80)
Формат : AC-3
Формат/Информация : Audio Coding 3
Расширение режима : CM (complete main)
Режим смешивания : DVD-Video
Продолжительность : 19 м.
Вид битрейта : Постоянный
Битрейт : 448 Кбит/сек
Каналы : 6 каналов
Расположение каналов : Front: L C R, Side: L R, LFE
Частота : 48,0 КГц
Битовая глубина : 16 бит
Метод сжатия : С потерями
Размер потока : 63,0 Мбайт (6%)

Меню
Title: 2199. Космическая одиссея DVD9
Size: 7.03 Gb ( 7 373 656,00 KBytes ) - DVD-9
Enabled regions: 1, 2, 3, 4, 5, 6, 7, 8

VTS_01 :
Play Length: 00:00:16
Video: PAL 16:9 (720x576) VBR, Auto Letterboxed
Audio:
Russian (Dolby AC3, 2 ch)

VTS_02 :
Play Length: 02:12:56
Video: PAL 16:9 (720x576) VBR, Auto Letterboxed
Audio:
Russian (Dolby AC3, 6 ch)
Скриншоты:

Время раздачи: С 22:00 до 9:00 (время Московское) до 5 скачавших
Танцую за "СПАСИБО" Image Скачали фильм, напишите комментарий!
[NNM-Club.ru]_2199. Kosmicheskaya odisseya DVD9.torrent
 Торрент: Платиновая раздача  Зарегистрирован
 
Скачать


 Зарегистрирован:   23 Авг 2011 17:44:17
 Размер:   7,03 GB  (
 Рейтинг:   3,8 (Голосов: 15)
 Поблагодарили:   61
 Проверка:   Оформление проверено модератором 23 Авг 2011 20:58:52
Как cкачать  ·  Как раздать  ·  Правильно оформить  ·  Поднять ратио!  
Sokol2007
Стаж: 10 лет 6 мес.
Сообщений: 183
Ratio: 5,244
Поблагодарили: 621
39.25%
Откуда: Сибирь
russia.gif
Фильм класс ! Советую к просмотру ! Спасибо за раздачу Земляк :подмигивание:

_________________
Кто первый встал, того и тапки.
FA46
Стаж: 8 лет 9 мес.
Сообщений: 27
Ratio: 34,338
Поблагодарили: 426
68.73%
Откуда: Еще не знаю (в процессе)
pirates.png
Неплохой фильм. ИМХО
jimaul
Стаж: 10 лет 7 мес.
Сообщений: 568
Ratio: 5,721
100%
russia.gif
потраченое в пустую время
лишний раз убедился : японы фильмы снимать не умеют
пусть лучше микросхемы и роботов клепают
это у них значительно лучше получается
а кино - не их стихия
МОНСТРО
Стаж: 9 лет 4 мес.
Сообщений: 305
Ratio: 37,803
Поблагодарили: 28716
Цитата:
Размер кадра: PAL 16:9 (720x576)

А скриншоты 1024x576???Уважаемые модераторы куда глаза у вас глядят
Или я что то не догоняю :D

 !  Примечание от Nikita:
Цитата:
Если видео DVD PAL 720х576, то

при соотношении сторон 4:3 - разрешение скринов должно составлять 768*576
при соотношении сторон 16:9 - разрешение скринов должно составлять 1024*576
МОНСТРО
Стаж: 9 лет 4 мес.
Сообщений: 305
Ratio: 37,803
Поблагодарили: 28716
МОНСТРО писал(а): Перейти к сообщению
Цитата:
Размер кадра: PAL 16:9 (720x576)

А скриншоты 1024x576???Уважаемые модераторы куда глаза у вас глядят
Или я что то не догоняю :D


Извиняюсь
сваток
Стаж: 10 лет 1 мес.
Сообщений: 20
Ratio: 75,631
100%
austria.gif
так себе,на разок фильм
allupanov
Стаж: 10 лет 6 мес.
Сообщений: 6
Ratio: 11,112
100%
russia.gif
Спасибо.
Nigmag
Стаж: 9 лет 8 мес.
Сообщений: 102
Ratio: 4,627
100%
Demasik
Спасибо!
Tyger67
Стаж: 9 лет 5 мес.
Сообщений: 2
Ratio: 5,059
Раздал: 2,75 GB
100%
Откуда: Благовещенск
russia.gif
Стоит ли качать 7 гигов, чтобы посмотреть на 1 раз. Тем не менее спасибо за фильм.
Показать сообщения:   
Начать новую тему   Ответить на тему    Торрент-трекер NNM-Club -> Зарубежное кино -> Азиатское кино (DVD) Часовой пояс: GMT + 3
Страница 1 из 1