Классический форум-трекер
canvas not supported
Нас вместе: 4 079 435

Пелагея - Дискография (11 CD) (2003-2010) [FLAC|Lossless]<Ethnic/Folk-Rock>


 
 
RSS
Начать новую тему   Ответить на тему    Торрент-трекер NNM-Club -> Other Styles -> Folk (Lossless)
Автор Сообщение
vover&vover ®
 
Стаж: 8 лет 9 мес.
Сообщений: 191
Ratio: 151,199
Раздал: 23,48 TB
Поблагодарили: 9669
100%
nnm-club.gif
Пелагея - Дискография (11 CD) (2003-2010)





Год: 2003-2010
Жанр: Ethnic/Folk-Rock
Кодек: FLAC
Битрейт: Lossless
Общая продолжительность: 09:12:49



Label: FEELEE/МИСТЕРИЯ ЗВУКА
Catalog#: FL 3155
Год выпуска диска: 2003
Производитель диска: Россия
Продолжительность: 00:55:31

01. Любо, братцы, любо!
02. Я ехала домой
03. Позарастали стежки-дорожки...
04. Не вечерняя...
05. Думы
06. Вечериночная
07. Отжил я свой век. Духовный стих
08. Не для тебя
09. Не уходи, побудь со мной
10. Рождественская
11. Казак
12. Раным рано
13. Сидел Ваня на диване
14. Когда мы были на войне
15. Фонтанка
16. Любо, братцы, любо! (акустическая версия)
Код:

Exact Audio Copy V0.99 prebeta 5 from 4. May 2009

EAC extraction logfile from 20. August 2010, 18:38

Пелагея / Пелагея

Used drive  : PIONEER DVD-RW  DVR-212   Adapter: 8  ID: 0

Read mode               : Secure
Utilize accurate stream : Yes
Defeat audio cache      : Yes
Make use of C2 pointers : No

Read offset correction                      : 48
Overread into Lead-In and Lead-Out          : No
Fill up missing offset samples with silence : Yes
Delete leading and trailing silent blocks   : No
Null samples used in CRC calculations       : Yes
Used interface                              : Installed external ASPI interface

Used output format : Internal WAV Routines
Sample format      : 44.100 Hz; 16 Bit; Stereo

TOC of the extracted CD

     Track |   Start  |  Length  | Start sector | End sector
    ---------------------------------------------------------
        1  |  0:00.00 |  5:50.11 |         0    |    26260
        2  |  5:50.11 |  2:24.19 |     26261    |    37079
        3  |  8:14.30 |  3:16.31 |     37080    |    51810
        4  | 11:30.61 |  4:07.28 |     51811    |    70363
        5  | 15:38.14 |  3:00.10 |     70364    |    83873
        6  | 18:38.24 |  0:49.48 |     83874    |    87596
        7  | 19:27.72 |  1:55.33 |     87597    |    96254
        8  | 21:23.30 |  3:14.28 |     96255    |   110832
        9  | 24:37.58 |  2:24.26 |    110833    |   121658
       10  | 27:02.09 |  4:47.02 |    121659    |   143185
       11  | 31:49.11 |  4:21.04 |    143186    |   162764
       12  | 36:10.15 |  5:05.73 |    162765    |   185712
       13  | 41:16.13 |  2:31.24 |    185713    |   197061
       14  | 43:47.37 |  3:20.00 |    197062    |   212061
       15  | 47:07.37 |  2:57.57 |    212062    |   225393
       16  | 50:05.19 |  5:25.45 |    225394    |   249813

Range status and errors

Selected range

     Filename J:\MP3\Пелагея (FLAC)\2003 Пелагея\Пелагея - Пелагея.wav

     Peak level 98.8 %
     Range quality 100.0 %
     Test CRC 5E67B686
     Copy CRC 5E67B686
     Copy OK

No errors occurred

AccurateRip summary

Track  1  accurately ripped (confidence 5)  [CB050D06]
Track  2  accurately ripped (confidence 5)  [89969CE1]
Track  3  accurately ripped (confidence 5)  [36A4A5A1]
Track  4  accurately ripped (confidence 5)  [0BA96482]
Track  5  accurately ripped (confidence 5)  [DA9DC96D]
Track  6  accurately ripped (confidence 5)  [BB0367ED]
Track  7  accurately ripped (confidence 5)  [07A44940]
Track  8  accurately ripped (confidence 5)  [4351769A]
Track  9  accurately ripped (confidence 5)  [43826105]
Track 10  accurately ripped (confidence 5)  [B2414E5B]
Track 11  accurately ripped (confidence 5)  [6E50C29D]
Track 12  accurately ripped (confidence 5)  [955491E1]
Track 13  accurately ripped (confidence 5)  [19AC5525]
Track 14  accurately ripped (confidence 5)  [A80F6F81]
Track 15  accurately ripped (confidence 5)  [60236CC6]
Track 16  accurately ripped (confidence 5)  [89766594]

All tracks accurately ripped

End of status report
Код:

-----------------------

DON'T MODIFY THIS FILE

-----------------------

PERFORMER: auCDtect Task Manager, ver. 1.5.1RC3 build 1.5.1.4
Copyright (c) 2008-2010 y-soft. All rights reserved
http://y-soft.org

ANALYZER: auCDtect: CD records authenticity detector, version 0.8.2
Copyright (c) 2004 Oleg Berngardt. All rights reserved.
Copyright (c) 2004 Alexander Djourik. All rights reserved.

FILE: Пелагея - Пелагея.flac
  Size: 335483020 Hash: E7B5CE414A0EC52C03BAB0FA567E8390 Accuracy: -m0
  Conclusion: CDDA 100%
  Signature: 96B6CC948E06BD6AFB933EE5A6CC2A6533B70899

Label: FEELEE
Catalog#: FL 3155
Год выпуска диска: 2003
Производитель диска: Россия
Продолжительность: 01:04:16

01. Любо, братцы, любо!
02. Я ехала домой
03. Позарастали стежки-дорожки...
04. Не вечерняя...
05. Думы
06. Вечериночная
07. Отжил я свой век. Духовный стих
08. Не для тебя
09. Не уходи, побудь со мной
10. Рождественская
11. Казак
12. Раным рано
13. Сидел Ваня на диване
14. Когда мы были на войне
15. Фонтанка
16. Любо, братцы, любо! (акустическая версия)
Бонус-треки
18. Жертва вечерняя
18. Позарастали стежки-дорожки... (ремикс)
Код:

Exact Audio Copy V0.99 prebeta 5 from 4. May 2009

EAC extraction logfile from 10. September 2010, 5:25

Пелагея / Пелагея

Used drive  : PIONEER DVD-RW  DVR-212   Adapter: 8  ID: 0

Read mode               : Secure
Utilize accurate stream : Yes
Defeat audio cache      : Yes
Make use of C2 pointers : No

Read offset correction                      : 48
Overread into Lead-In and Lead-Out          : No
Fill up missing offset samples with silence : Yes
Delete leading and trailing silent blocks   : No
Null samples used in CRC calculations       : Yes
Used interface                              : Installed external ASPI interface

Used output format : Internal WAV Routines
Sample format      : 44.100 Hz; 16 Bit; Stereo

TOC of the extracted CD

     Track |   Start  |  Length  | Start sector | End sector
    ---------------------------------------------------------
        1  |  0:00.00 |  5:50.11 |         0    |    26260
        2  |  5:50.11 |  2:24.19 |     26261    |    37079
        3  |  8:14.30 |  3:16.31 |     37080    |    51810
        4  | 11:30.61 |  4:07.28 |     51811    |    70363
        5  | 15:38.14 |  3:00.10 |     70364    |    83873
        6  | 18:38.24 |  0:49.48 |     83874    |    87596
        7  | 19:27.72 |  1:55.33 |     87597    |    96254
        8  | 21:23.30 |  3:14.28 |     96255    |   110832
        9  | 24:37.58 |  2:24.26 |    110833    |   121658
       10  | 27:02.09 |  4:47.02 |    121659    |   143185
       11  | 31:49.11 |  4:21.04 |    143186    |   162764
       12  | 36:10.15 |  5:05.73 |    162765    |   185712
       13  | 41:16.13 |  2:31.24 |    185713    |   197061
       14  | 43:47.37 |  3:20.00 |    197062    |   212061
       15  | 47:07.37 |  2:57.57 |    212062    |   225393
       16  | 50:05.19 |  5:27.29 |    225394    |   249947
       17  | 55:32.48 |  3:37.51 |    249948    |   266273
       18  | 59:10.24 |  5:05.42 |    266274    |   289190

Range status and errors

Selected range

     Filename J:\MP3\Пелагея (FLAC)\2003 Пелагея (коллекционное)\Пелагея - Пелагея.wav

     Peak level 98.8 %
     Range quality 100.0 %
     Test CRC 66579D80
     Copy CRC 66579D80
     Copy OK

No errors occurred

AccurateRip summary

Track  1  accurately ripped (confidence 2)  [5F85DE47]
Track  2  accurately ripped (confidence 2)  [8874E030]
Track  3  accurately ripped (confidence 2)  [9C0C175C]
Track  4  accurately ripped (confidence 2)  [087D1316]
Track  5  accurately ripped (confidence 2)  [F55B39ED]
Track  6  accurately ripped (confidence 2)  [02D22716]
Track  7  accurately ripped (confidence 2)  [B33E49B3]
Track  8  accurately ripped (confidence 2)  [340FAF9A]
Track  9  accurately ripped (confidence 2)  [6A8086F8]
Track 10  accurately ripped (confidence 2)  [89D4B937]
Track 11  accurately ripped (confidence 2)  [6661FF14]
Track 12  accurately ripped (confidence 2)  [FE2B5C53]
Track 13  accurately ripped (confidence 2)  [C1A66C82]
Track 14  accurately ripped (confidence 2)  [CD2F2408]
Track 15  accurately ripped (confidence 2)  [CC80101F]
Track 16  accurately ripped (confidence 2)  [ECB6A742]
Track 17  accurately ripped (confidence 2)  [81A39F6F]
Track 18  accurately ripped (confidence 2)  [240CB895]

All tracks accurately ripped

End of status report
Код:

-----------------------

DON'T MODIFY THIS FILE

-----------------------

PERFORMER: auCDtect Task Manager, ver. 1.5.1RC3 build 1.5.1.4
Copyright (c) 2008-2010 y-soft. All rights reserved
http://y-soft.org

ANALYZER: auCDtect: CD records authenticity detector, version 0.8.2
Copyright (c) 2004 Oleg Berngardt. All rights reserved.
Copyright (c) 2004 Alexander Djourik. All rights reserved.

FILE: Пелагея - Пелагея.flac
  Size: 389491244 Hash: D331B231AD3DC58F778C1131EFA9DAB0 Accuracy: -m0
  Conclusion: CDDA 100%
  Signature: CC9873C5EEA5BE24DD6F8A6163455EB3706907BE

Label: МИСТЕРИЯ
Catalog#: MZ 326-2
Год выпуска диска: 2006
Производитель диска: Россия
Продолжительность: 00:12:37

01. Кумушки
02. Валенки
03. Позарастали стёжки-дорожки
Код:

Exact Audio Copy V1.0 beta 1 from 15. November 2010

EAC extraction logfile from 19. December 2010, 23:51

Пелагея / Сингл

Used drive  : PIONEER DVD-RW  DVR-212   Adapter: 8  ID: 0

Read mode               : Secure
Utilize accurate stream : Yes
Defeat audio cache      : Yes
Make use of C2 pointers : No

Read offset correction                      : 48
Overread into Lead-In and Lead-Out          : No
Fill up missing offset samples with silence : Yes
Delete leading and trailing silent blocks   : No
Null samples used in CRC calculations       : Yes
Used interface                              : Installed external ASPI interface

Used output format : Internal WAV Routines
Sample format      : 44.100 Hz; 16 Bit; Stereo

TOC of the extracted CD

     Track |   Start  |  Length  | Start sector | End sector
    ---------------------------------------------------------
        1  |  0:00.00 |  3:17.46 |         0    |    14820
        2  |  3:17.46 |  2:52.18 |     14821    |    27738
        3  |  6:09.64 |  6:27.29 |     27739    |    56792
        4  | 15:09.18 |  8:09.11 |     68193    |   104878

Range status and errors

Selected range

     Filename J:\MP3\Пелагея (FLAC)\2006 Сингл\Пелагея - Сингл.wav

     Peak level 99.9 %
     Extraction speed 3.3 X
     Range quality 100.0 %
     Test CRC 7945C63E
     Copy CRC 7945C63E
     Copy OK

No errors occurred

AccurateRip summary

Track  1  accurately ripped (confidence 2)  [5A255E67]
Track  2  accurately ripped (confidence 2)  [05F2110D]
Track  3  accurately ripped (confidence 2)  [A5F970D1]

All tracks accurately ripped

End of status report
Код:

-----------------------

DON'T MODIFY THIS FILE

-----------------------

PERFORMER: auCDtect Task Manager, ver. 1.5.1RC3 build 1.5.1.4
Copyright (c) 2008-2010 y-soft. All rights reserved
http://y-soft.org

ANALYZER: auCDtect: CD records authenticity detector, version 0.8.2
Copyright (c) 2004 Oleg Berngardt. All rights reserved.
Copyright (c) 2004 Alexander Djourik. All rights reserved.

FILE: Пелагея - Сингл.flac
  Size: 75417866 Hash: 7DFEED45C3E10D51315BD1C5FA7EDECF Accuracy: -m0
  Conclusion: CDDA 100%
  Signature: 68BC87A05D07CD34BCDE2A4FCE31C2690165A65F

Label: МИСТЕРИЯ ЗВУКА
Catalog#: MZ 366-2
Год выпуска диска: 2007
Производитель диска: Россия
Продолжительность: 00:50:21

01. Нюркина песня
02. Валенки
03. Век
04. Щедривочка
05. Разлилась
06. Когда мы были на войне
07. Позарастали стежки-дорожки
08. Кумушки
09. Пелагеюшка
10. Под лаской плюшевого пледа
11. Казак
Код:

Exact Audio Copy V1.0 beta 1 from 15. November 2010

EAC extraction logfile from 19. December 2010, 23:51

Пелагея / Сингл

Used drive  : PIONEER DVD-RW  DVR-212   Adapter: 8  ID: 0

Read mode               : Secure
Utilize accurate stream : Yes
Defeat audio cache      : Yes
Make use of C2 pointers : No

Read offset correction                      : 48
Overread into Lead-In and Lead-Out          : No
Fill up missing offset samples with silence : Yes
Delete leading and trailing silent blocks   : No
Null samples used in CRC calculations       : Yes
Used interface                              : Installed external ASPI interface

Used output format : Internal WAV Routines
Sample format      : 44.100 Hz; 16 Bit; Stereo

TOC of the extracted CD

     Track |   Start  |  Length  | Start sector | End sector
    ---------------------------------------------------------
        1  |  0:00.00 |  3:17.46 |         0    |    14820
        2  |  3:17.46 |  2:52.18 |     14821    |    27738
        3  |  6:09.64 |  6:27.29 |     27739    |    56792
        4  | 15:09.18 |  8:09.11 |     68193    |   104878

Range status and errors

Selected range

     Filename J:\MP3\Пелагея (FLAC)\2006 Сингл\Пелагея - Сингл.wav

     Peak level 99.9 %
     Extraction speed 3.3 X
     Range quality 100.0 %
     Test CRC 7945C63E
     Copy CRC 7945C63E
     Copy OK

No errors occurred

AccurateRip summary

Track  1  accurately ripped (confidence 2)  [5A255E67]
Track  2  accurately ripped (confidence 2)  [05F2110D]
Track  3  accurately ripped (confidence 2)  [A5F970D1]

All tracks accurately ripped

End of status report
Код:

-----------------------

DON'T MODIFY THIS FILE

-----------------------

PERFORMER: auCDtect Task Manager, ver. 1.5.1RC3 build 1.5.1.4
Copyright (c) 2008-2010 y-soft. All rights reserved
http://y-soft.org

ANALYZER: auCDtect: CD records authenticity detector, version 0.8.2
Copyright (c) 2004 Oleg Berngardt. All rights reserved.
Copyright (c) 2004 Alexander Djourik. All rights reserved.

FILE: Пелагея - Сингл.flac
  Size: 75417866 Hash: 7DFEED45C3E10D51315BD1C5FA7EDECF Accuracy: -m0
  Conclusion: CDDA 100%
  Signature: 68BC87A05D07CD34BCDE2A4FCE31C2690165A65F

Label: МИСТЕРИЯ ЗВУКА
Catalog#: MZ 366-9/RUS
Год выпуска диска: 2007
Производитель диска: Россия
Продолжительность: 00:55:13

01. Век
02. Валенки
03. Разлилась
04. Когда мы были на войне
05. Щедривочка
06. Нюркина песня
07. Позарастали стёжки-дорожки
08. Кумушки
09. Казак
10. Под лаской плюшевого пледа
11. Пелагеюшка
12. Чубчик (дуэт с Гариком Сукачёвым) [бонус]
Код:

Exact Audio Copy V0.99 prebeta 5 from 4. May 2009

EAC extraction logfile from 13. September 2010, 4:31

Пелагея / Девушкины песни

Used drive  : PIONEER DVD-RW  DVR-212   Adapter: 8  ID: 0

Read mode               : Secure
Utilize accurate stream : Yes
Defeat audio cache      : Yes
Make use of C2 pointers : No

Read offset correction                      : 48
Overread into Lead-In and Lead-Out          : No
Fill up missing offset samples with silence : Yes
Delete leading and trailing silent blocks   : No
Null samples used in CRC calculations       : Yes
Used interface                              : Installed external ASPI interface

Used output format : Internal WAV Routines
Sample format      : 44.100 Hz; 16 Bit; Stereo

TOC of the extracted CD

     Track |   Start  |  Length  | Start sector | End sector
    ---------------------------------------------------------
        1  |  0:00.00 |  3:51.17 |         0    |    17341
        2  |  3:51.17 |  2:52.53 |     17342    |    30294
        3  |  6:43.70 |  6:37.14 |     30295    |    60083
        4  | 13:21.09 |  3:28.10 |     60084    |    75693
        5  | 16:49.19 |  6:57.10 |     75694    |   106978
        6  | 23:46.29 |  3:37.14 |    106979    |   123267
        7  | 27:23.43 |  6:27.06 |    123268    |   152298
        8  | 33:50.49 |  3:17.66 |    152299    |   167139
        9  | 37:08.40 |  4:33.26 |    167140    |   187640
       10  | 41:41.66 |  3:16.67 |    187641    |   202407
       11  | 44:58.58 |  5:22.05 |    202408    |   226562
       12  | 50:20.63 |  4:51.51 |    226563    |   248438
       13  | 57:44.39 |  6:30.44 |    259839    |   289132

Range status and errors

Selected range

     Filename J:\MP3\Пелагея (FLAC)\2007 Девушкины песни (подарочный)\Пелагея - Девушкины песни.wav

     Peak level 99.9 %
     Range quality 100.0 %
     Test CRC 0174274E
     Copy CRC 0174274E
     Copy OK

No errors occurred

AccurateRip summary

Track  1  accurately ripped (confidence 5)  [C2FC36EA]
Track  2  accurately ripped (confidence 5)  [84DF58EC]
Track  3  accurately ripped (confidence 5)  [D8454F42]
Track  4  accurately ripped (confidence 5)  [52FF8B5C]
Track  5  accurately ripped (confidence 5)  [96A2525B]
Track  6  accurately ripped (confidence 5)  [BAC08C73]
Track  7  accurately ripped (confidence 5)  [1D39F572]
Track  8  accurately ripped (confidence 5)  [542B274A]
Track  9  accurately ripped (confidence 5)  [ABEBBB29]
Track 10  accurately ripped (confidence 5)  [5D446B99]
Track 11  accurately ripped (confidence 5)  [DA8269AA]
Track 12  accurately ripped (confidence 5)  [C0E3C595]

All tracks accurately ripped

End of status report
Код:

-----------------------

DON'T MODIFY THIS FILE

-----------------------

PERFORMER: auCDtect Task Manager, ver. 1.5.1RC3 build 1.5.1.4
Copyright (c) 2008-2010 y-soft. All rights reserved
http://y-soft.org

ANALYZER: auCDtect: CD records authenticity detector, version 0.8.2
Copyright (c) 2004 Oleg Berngardt. All rights reserved.
Copyright (c) 2004 Alexander Djourik. All rights reserved.

FILE: Пелагея - Девушкины песни.flac
  Size: 361829064 Hash: 304E303340E4838C8B258868CA687725 Accuracy: -m0
  Conclusion: CDDA 99%
  Signature: EC55D92DA1505C34DAD30D77F4C4D30EC8B431B4

Label: МИСТЕРИЯ ЗВУКА
Catalog#: MZ 366-9/EXPORT/CD
Год выпуска диска: 2007
Производитель диска: Россия
Продолжительность: 00:49:11

01. Vek
02. Valenki
03. Razlilas...
04. Schedrivochka
05. Cossack
06. Pod Laskoy Plushevogo Pleda
07. Styozhki - Dorozhki
08. Tsvetiki
09. Kogda Mi Bili Na Voine
10. Kumushki
11. Pelageyushka
Код:

Exact Audio Copy V0.99 prebeta 5 from 4. May 2009

EAC extraction logfile from 13. September 2010, 3:47

Pelageya / Girl's Songs

Used drive  : PIONEER DVD-RW  DVR-212   Adapter: 8  ID: 0

Read mode               : Secure
Utilize accurate stream : Yes
Defeat audio cache      : Yes
Make use of C2 pointers : No

Read offset correction                      : 48
Overread into Lead-In and Lead-Out          : No
Fill up missing offset samples with silence : Yes
Delete leading and trailing silent blocks   : No
Null samples used in CRC calculations       : Yes
Used interface                              : Installed external ASPI interface

Used output format : Internal WAV Routines
Sample format      : 44.100 Hz; 16 Bit; Stereo

TOC of the extracted CD

     Track |   Start  |  Length  | Start sector | End sector
    ---------------------------------------------------------
        1  |  0:00.00 |  3:51.17 |         0    |    17341
        2  |  3:51.17 |  2:52.53 |     17342    |    30294
        3  |  6:43.70 |  6:37.14 |     30295    |    60083
        4  | 13:21.09 |  6:57.10 |     60084    |    91368
        5  | 20:18.19 |  4:33.26 |     91369    |   111869
        6  | 24:51.45 |  3:16.68 |    111870    |   126637
        7  | 28:08.38 |  6:27.06 |    126638    |   155668
        8  | 34:35.44 |  2:27.03 |    155669    |   166696
        9  | 37:02.47 |  3:28.10 |    166697    |   182306
       10  | 40:30.57 |  3:17.66 |    182307    |   197147
       11  | 43:48.48 |  5:22.18 |    197148    |   221315

Range status and errors

Selected range

     Filename J:\MP3\Пелагея (FLAC)\2007 Girl's Songs\Pelageya - Girl's Songs.wav

     Peak level 99.9 %
     Range quality 100.0 %
     Test CRC D536325E
     Copy CRC D536325E
     Copy OK

No errors occurred

AccurateRip summary

Track  1  accurately ripped (confidence 1)  [F28B0ED5]
Track  2  accurately ripped (confidence 1)  [A708D70E]
Track  3  accurately ripped (confidence 1)  [C740AE4E]
Track  4  accurately ripped (confidence 1)  [9C595A49]
Track  5  accurately ripped (confidence 1)  [162DF8A5]
Track  6  accurately ripped (confidence 1)  [A70D7901]
Track  7  accurately ripped (confidence 1)  [6B9552C5]
Track  8  accurately ripped (confidence 1)  [17E5AE3C]
Track  9  accurately ripped (confidence 1)  [DAC4DAE3]
Track 10  accurately ripped (confidence 1)  [E34C3DAB]
Track 11  accurately ripped (confidence 1)  [7A9C8916]

All tracks accurately ripped

End of status report
Код:

-----------------------

DON'T MODIFY THIS FILE

-----------------------

PERFORMER: auCDtect Task Manager, ver. 1.5.1RC3 build 1.5.1.4
Copyright (c) 2008-2010 y-soft. All rights reserved
http://y-soft.org

ANALYZER: auCDtect: CD records authenticity detector, version 0.8.2
Copyright (c) 2004 Oleg Berngardt. All rights reserved.
Copyright (c) 2004 Alexander Djourik. All rights reserved.

FILE: Pelageya - Girl's Songs.flac
  Size: 314679972 Hash: 57F3382488C817B827B312E7B01D7A82 Accuracy: -m0
  Conclusion: CDDA 99%
  Signature: E46BAB91F49129A602C62F3D655AE5E2EAADF76A

Label: МИСТЕРИЯ ЗВУКА
Catalog#: CD-M+110-2
Год выпуска диска: 2009
Производитель диска: Россия
Продолжительность: 01:01:44

01. Калинушка
02. Не для тебя
03. Голубушка
04. Ой, да не вечер
05. Снежочки
06. Цыганский mix
07. Христос
08. Рано-рано
09. Любо
10. Омут
11. Казак
Код:

Exact Audio Copy V0.99 prebeta 5 from 4. May 2009

EAC extraction logfile from 20. August 2010, 4:15

Пелагея / Сибирский Драйв

Used drive  : PIONEER DVD-RW  DVR-212   Adapter: 8  ID: 0

Read mode               : Secure
Utilize accurate stream : Yes
Defeat audio cache      : Yes
Make use of C2 pointers : No

Read offset correction                      : 48
Overread into Lead-In and Lead-Out          : No
Fill up missing offset samples with silence : Yes
Delete leading and trailing silent blocks   : No
Null samples used in CRC calculations       : Yes
Used interface                              : Installed external ASPI interface

Used output format : Internal WAV Routines
Sample format      : 44.100 Hz; 16 Bit; Stereo

TOC of the extracted CD

     Track |   Start  |  Length  | Start sector | End sector
    ---------------------------------------------------------
        1  |  0:00.00 |  5:54.52 |         0    |    26601
        2  |  5:54.52 |  3:53.18 |     26602    |    44094
        3  |  9:47.70 |  3:41.63 |     44095    |    60732
        4  | 13:29.58 |  5:18.16 |     60733    |    84598
        5  | 18:47.74 |  7:48.60 |     84599    |   119758
        6  | 26:36.59 |  9:04.26 |    119759    |   160584
        7  | 35:41.10 |  3:29.00 |    160585    |   176259
        8  | 39:10.10 |  5:22.47 |    176260    |   200456
        9  | 44:32.57 |  5:06.29 |    200457    |   223435
       10  | 49:39.11 |  4:21.58 |    223436    |   243068
       11  | 54:00.69 |  7:42.62 |    243069    |   277780

Range status and errors

Selected range

     Filename J:\MP3\Пелагея (FLAC)\2009 Сибирский Драйв\Пелагея - Сибирский Драйв.wav

     Peak level 99.9 %
     Range quality 100.0 %
     Test CRC 3F2FE95E
     Copy CRC 3F2FE95E
     Copy OK

No errors occurred

AccurateRip summary

Track  1  cannot be verified as accurate (confidence 2)  [F496C18A], AccurateRip returned [65A42048]
Track  2  cannot be verified as accurate (confidence 2)  [A4CE6E53], AccurateRip returned [180210AA]
Track  3  cannot be verified as accurate (confidence 2)  [6A91F985], AccurateRip returned [A753453A]
Track  4  cannot be verified as accurate (confidence 2)  [D7432DDE], AccurateRip returned [958E08B1]
Track  5  cannot be verified as accurate (confidence 2)  [779724F5], AccurateRip returned [AC7797D3]
Track  6  cannot be verified as accurate (confidence 2)  [B1989C66], AccurateRip returned [E3AA594A]
Track  7  cannot be verified as accurate (confidence 2)  [29D89DD8], AccurateRip returned [A42421DE]
Track  8  cannot be verified as accurate (confidence 2)  [21932B26], AccurateRip returned [1CC15D32]
Track  9  cannot be verified as accurate (confidence 2)  [33EEE73A], AccurateRip returned [E46E3FDE]
Track 10  cannot be verified as accurate (confidence 2)  [06BFE982], AccurateRip returned [BB00C67B]
Track 11  cannot be verified as accurate (confidence 2)  [966824DB], AccurateRip returned [860A342E]

No tracks could be verified as accurate
You may have a different pressing from the one(s) in the database

End of status report
Код:

-----------------------

DON'T MODIFY THIS FILE

-----------------------

PERFORMER: auCDtect Task Manager, ver. 1.5.1RC3 build 1.5.1.4
Copyright (c) 2008-2010 y-soft. All rights reserved
http://y-soft.org

ANALYZER: auCDtect: CD records authenticity detector, version 0.8.2
Copyright (c) 2004 Oleg Berngardt. All rights reserved.
Copyright (c) 2004 Alexander Djourik. All rights reserved.

FILE: Пелагея - Сибирский Драйв.flac
  Size: 382357146 Hash: 3E7F66968C0CE82F7F2BB18C6455BB9B Accuracy: -m0
  Conclusion: CDDA 100%
  Signature: 3A0B4EE1BF7810C279BCC402220F07CB37C503FD

Label: МИСТЕРИЯ+
Catalog#: CD-M+099-S
Год выпуска диска: 2009
Производитель диска: Россия
Продолжительность: 00:19:01

01. Ой, Да Не Вечер
02. Босанова
03. Голубушка
04. Мамка
Код:

Exact Audio Copy V1.0 beta 1 from 15. November 2010

EAC extraction logfile from 19. December 2010, 23:33

Пелагея / Тропы (Сингл)

Used drive  : PIONEER DVD-RW  DVR-212   Adapter: 8  ID: 0

Read mode               : Secure
Utilize accurate stream : Yes
Defeat audio cache      : Yes
Make use of C2 pointers : No

Read offset correction                      : 48
Overread into Lead-In and Lead-Out          : No
Fill up missing offset samples with silence : Yes
Delete leading and trailing silent blocks   : No
Null samples used in CRC calculations       : Yes
Used interface                              : Installed external ASPI interface

Used output format : Internal WAV Routines
Sample format      : 44.100 Hz; 16 Bit; Stereo

TOC of the extracted CD

     Track |   Start  |  Length  | Start sector | End sector
    ---------------------------------------------------------
        1  |  0:00.00 |  5:17.04 |         0    |    23778
        2  |  5:17.04 |  4:44.65 |     23779    |    45143
        3  | 10:01.69 |  3:40.03 |     45144    |    61646
        4  | 13:41.72 |  5:18.73 |     61647    |    85569

Range status and errors

Selected range

     Filename J:\MP3\Пелагея (FLAC)\2009 Тропы (Сингл)\Пелагея - Тропы (Сингл).wav

     Peak level 100.0 %
     Extraction speed 1.5 X
     Range quality 100.0 %
     Test CRC E919A805
     Copy CRC E919A805
     Copy OK

No errors occurred

AccurateRip summary

Track  1  accurately ripped (confidence 5)  [9F302DCE]
Track  2  accurately ripped (confidence 5)  [CC862921]
Track  3  accurately ripped (confidence 5)  [6553EFB8]
Track  4  accurately ripped (confidence 5)  [E212BA1F]

All tracks accurately ripped

End of status report
Код:

-----------------------

DON'T MODIFY THIS FILE

-----------------------

PERFORMER: auCDtect Task Manager, ver. 1.5.1RC3 build 1.5.1.4
Copyright (c) 2008-2010 y-soft. All rights reserved
http://y-soft.org

ANALYZER: auCDtect: CD records authenticity detector, version 0.8.2
Copyright (c) 2004 Oleg Berngardt. All rights reserved.
Copyright (c) 2004 Alexander Djourik. All rights reserved.

FILE: Пелагея - Тропы (Сингл).flac
  Size: 129924103 Hash: C9141BF1BB75D3481D1336ADCEAAB739 Accuracy: -m0
  Conclusion: CDDA 100%
  Signature: 0AB42010533EDA6606DF25000C449B93AFE0DFAD

Label: СОЮЗ
Catalog#: SZCD 6931-10
Год выпуска диска: 2010
Производитель диска: Россия
Продолжительность: 00:52:18

01. Ой, да не вечер
02. Пташечка
03. Гаю-гаю
04. Голубушка
05. Дрёма (колыбельная)
06. Снежочки
07. Оборотень-Князь
08. Полночный Всадник
09. Фиолетовые Сны
10. Былинка
11. Колечко
12. Розы
13. Деревня
14. Мамина Bossa Nova
15. Тропы
Код:

Exact Audio Copy V1.0 beta 1 from 15. November 2010

EAC extraction logfile from 19. December 2010, 22:28

Пелагея / Тропы

Used drive  : PIONEER DVD-RW  DVR-212   Adapter: 8  ID: 0

Read mode               : Secure
Utilize accurate stream : Yes
Defeat audio cache      : Yes
Make use of C2 pointers : No

Read offset correction                      : 48
Overread into Lead-In and Lead-Out          : No
Fill up missing offset samples with silence : Yes
Delete leading and trailing silent blocks   : No
Null samples used in CRC calculations       : Yes
Used interface                              : Installed external ASPI interface

Used output format : Internal WAV Routines
Sample format      : 44.100 Hz; 16 Bit; Stereo

TOC of the extracted CD

     Track |   Start  |  Length  | Start sector | End sector
    ---------------------------------------------------------
        1  |  0:00.00 |  5:10.18 |         0    |    23267
        2  |  5:10.18 |  5:35.70 |     23268    |    48462
        3  | 10:46.13 |  3:59.12 |     48463    |    66399
        4  | 14:45.25 |  3:37.53 |     66400    |    82727
        5  | 18:23.03 |  4:59.11 |     82728    |   105163
        6  | 23:22.14 |  7:22.46 |    105164    |   138359
        7  | 30:44.60 |  7:45.26 |    138360    |   173260
        8  | 38:30.11 |  6:36.05 |    173261    |   202965
        9  | 45:06.16 |  4:19.45 |    202966    |   222435
       10  | 49:25.61 |  4:47.55 |    222436    |   244015
       11  | 54:13.41 |  5:56.38 |    244016    |   270753
       12  | 60:10.04 |  4:36.14 |    270754    |   291467
       13  | 64:46.18 |  5:23.45 |    291468    |   315737
       14  | 70:09.63 |  4:43.21 |    315738    |   336983
       15  | 74:53.09 |  4:57.47 |    336984    |   359305

Range status and errors

Selected range

     Filename J:\MP3\Пелагея (FLAC)\2010 Тропы\Пелагея - Тропы.wav

     Peak level 99.6 %
     Extraction speed 0.5 X
     Range quality 100.0 %
     Test CRC 2FB64AF1
     Copy CRC 2FB64AF1
     Copy OK

No errors occurred

AccurateRip summary

Track  1  not present in database
Track  2  not present in database
Track  3  not present in database
Track  4  not present in database
Track  5  not present in database
Track  6  not present in database
Track  7  not present in database
Track  8  not present in database
Track  9  not present in database
Track 10  not present in database
Track 11  not present in database
Track 12  not present in database
Track 13  not present in database
Track 14  not present in database
Track 15  not present in database

None of the tracks are present in the AccurateRip database

End of status report
Код:

-----------------------

DON'T MODIFY THIS FILE

-----------------------

PERFORMER: auCDtect Task Manager, ver. 1.5.1RC3 build 1.5.1.4
Copyright (c) 2008-2010 y-soft. All rights reserved
http://y-soft.org

ANALYZER: auCDtect: CD records authenticity detector, version 0.8.2
Copyright (c) 2004 Oleg Berngardt. All rights reserved.
Copyright (c) 2004 Alexander Djourik. All rights reserved.

FILE: Пелагея - Тропы.flac
  Size: 504812703 Hash: 8BA224F6DF67C749381BF57FC76FE2D3 Accuracy: -m0
  Conclusion: CDDA 100%
  Signature: 085E0772D49D5D3C379897FF21D72E7D8E5058C3

Label: СОЮЗ
Catalog#: SZCD 6835-10
Год выпуска диска: 2010
Производитель диска: Россия
Продолжительность: 01:45:06


Продолжительность: 00:49:57

01. Прелюдия
02. Ой, да не вечер
03. Колечко
04. Оборотень-Князь
05. Фиолетовые сны
06. Голубушка
07. Мамка
08. Дрёма (колыбельная)
09. Омут
10. Степь
Код:

Exact Audio Copy V0.99 prebeta 5 from 4. May 2009

EAC extraction logfile from 22. August 2010, 0:46

Пелагея / Тропы - CD 1

Used drive  : PIONEER DVD-RW  DVR-212   Adapter: 8  ID: 0

Read mode               : Secure
Utilize accurate stream : Yes
Defeat audio cache      : Yes
Make use of C2 pointers : No

Read offset correction                      : 48
Overread into Lead-In and Lead-Out          : No
Fill up missing offset samples with silence : Yes
Delete leading and trailing silent blocks   : No
Null samples used in CRC calculations       : Yes
Used interface                              : Installed external ASPI interface

Used output format : Internal WAV Routines
Sample format      : 44.100 Hz; 16 Bit; Stereo

TOC of the extracted CD

     Track |   Start  |  Length  | Start sector | End sector
    ---------------------------------------------------------
        1  |  0:00.00 |  4:28.27 |         0    |    20126
        2  |  4:28.27 |  5:10.24 |     20127    |    43400
        3  |  9:38.51 |  5:52.13 |     43401    |    69813
        4  | 15:30.64 |  7:43.66 |     69814    |   104604
        5  | 23:14.55 |  4:17.28 |    104605    |   123907
        6  | 27:32.08 |  3:36.00 |    123908    |   140107
        7  | 31:08.08 |  5:15.23 |    140108    |   163755
        8  | 36:23.31 |  4:55.38 |    163756    |   185918
        9  | 41:18.69 |  4:22.09 |    185919    |   205577
       10  | 45:41.03 |  4:16.33 |    205578    |   224810

Range status and errors

Selected range

     Filename J:\MP3\Пелагея (FLAC)\2010 Тропы (2 CD)\CD 1\Пелагея - Тропы - CD 1.wav

     Peak level 99.6 %
     Range quality 100.0 %
     Test CRC 00F84C1C
     Copy CRC 00F84C1C
     Copy OK

No errors occurred

AccurateRip summary

Track  1  accurately ripped (confidence 4)  [CB099358]
Track  2  accurately ripped (confidence 4)  [618669B3]
Track  3  accurately ripped (confidence 4)  [381DAC8C]
Track  4  accurately ripped (confidence 4)  [0467B5BC]
Track  5  accurately ripped (confidence 4)  [228560E4]
Track  6  accurately ripped (confidence 4)  [2FD8D415]
Track  7  accurately ripped (confidence 4)  [DAAC923D]
Track  8  accurately ripped (confidence 4)  [3CB5EBA3]
Track  9  accurately ripped (confidence 4)  [0853EB59]
Track 10  accurately ripped (confidence 4)  [B8C4678B]

All tracks accurately ripped

End of status report
Код:

-----------------------

DON'T MODIFY THIS FILE

-----------------------

PERFORMER: auCDtect Task Manager, ver. 1.5.1RC3 build 1.5.1.4
Copyright (c) 2008-2010 y-soft. All rights reserved
http://y-soft.org

ANALYZER: auCDtect: CD records authenticity detector, version 0.8.2
Copyright (c) 2004 Oleg Berngardt. All rights reserved.
Copyright (c) 2004 Alexander Djourik. All rights reserved.

FILE: Пелагея - Тропы - CD 1.flac
  Size: 338163379 Hash: 21AD2C10B3D1CA1196A010418751BFD5 Accuracy: -m0
  Conclusion: CDDA 100%
  Signature: 4DD895582D2100A99C46D362A7FF6F70CC0027A5

Продолжительность: 00:55:09

01. Пташечка
02. Снежочки
03. Былинка
04. Полночный Всадник
05. Гаю-гаю
06. Розы
07. Старики
08. Деревня
09. Мамина Bossa Nova
10. Тропы
11. При лужку (дуэт с Михаилом Горшенёвым) [бонус]
Код:

Exact Audio Copy V0.99 prebeta 5 from 4. May 2009

EAC extraction logfile from 22. August 2010, 1:17

Пелагея / Тропы - CD 2

Used drive  : PIONEER DVD-RW  DVR-212   Adapter: 8  ID: 0

Read mode               : Secure
Utilize accurate stream : Yes
Defeat audio cache      : Yes
Make use of C2 pointers : No

Read offset correction                      : 48
Overread into Lead-In and Lead-Out          : No
Fill up missing offset samples with silence : Yes
Delete leading and trailing silent blocks   : No
Null samples used in CRC calculations       : Yes
Used interface                              : Installed external ASPI interface

Used output format : Internal WAV Routines
Sample format      : 44.100 Hz; 16 Bit; Stereo

TOC of the extracted CD

     Track |   Start  |  Length  | Start sector | End sector
    ---------------------------------------------------------
        1  |  0:00.00 |  5:42.43 |         0    |    25692
        2  |  5:42.43 |  7:17.72 |     25693    |    58539
        3  | 13:00.40 |  4:41.09 |     58540    |    79623
        4  | 17:41.49 |  6:33.13 |     79624    |   109111
        5  | 24:14.62 |  4:02.45 |    109112    |   127306
        6  | 28:17.32 |  4:35.11 |    127307    |   147942
        7  | 32:52.43 |  2:46.21 |    147943    |   160413
        8  | 35:38.64 |  5:22.72 |    160414    |   184635
        9  | 41:01.61 |  4:43.25 |    184636    |   205885
       10  | 45:45.11 |  4:56.57 |    205886    |   228142
       11  | 50:41.68 |  4:26.50 |    228143    |   248142

Range status and errors

Selected range

     Filename J:\MP3\Пелагея (FLAC)\2010 Тропы (2 CD)\CD 2\Пелагея - Тропы - CD 2.wav

     Peak level 99.6 %
     Range quality 100.0 %
     Test CRC 961117E8
     Copy CRC 961117E8
     Copy OK

No errors occurred

AccurateRip summary

Track  1  accurately ripped (confidence 3)  [7B3BE0EA]
Track  2  accurately ripped (confidence 3)  [05779B90]
Track  3  accurately ripped (confidence 3)  [30DA9FAE]
Track  4  accurately ripped (confidence 3)  [EBE90167]
Track  5  accurately ripped (confidence 3)  [E401D566]
Track  6  accurately ripped (confidence 3)  [267DD8D9]
Track  7  accurately ripped (confidence 3)  [C5AFCD1C]
Track  8  accurately ripped (confidence 3)  [AB9DED08]
Track  9  accurately ripped (confidence 3)  [0AA853BF]
Track 10  accurately ripped (confidence 3)  [DB4D31E9]
Track 11  accurately ripped (confidence 4)  [BDCC961F]

All tracks accurately ripped

End of status report
Код:

-----------------------

DON'T MODIFY THIS FILE

-----------------------

PERFORMER: auCDtect Task Manager, ver. 1.5.1RC3 build 1.5.1.4
Copyright (c) 2008-2010 y-soft. All rights reserved
http://y-soft.org

ANALYZER: auCDtect: CD records authenticity detector, version 0.8.2
Copyright (c) 2004 Oleg Berngardt. All rights reserved.
Copyright (c) 2004 Alexander Djourik. All rights reserved.

FILE: Пелагея - Тропы - CD 2.flac
  Size: 343832344 Hash: A1907902A8F3C03A2553FEDB0F9D6B5A Accuracy: -m0
  Conclusion: CDDA 99%
  Signature: 56967067EA51F410E7E898830E916ED6D77E45B1
Время раздачи: с 08:00 до 23:00
[NNM-Club.ru]_Pelageya (FLAC).torrent
 Торрент: Платиновая раздача  Зарегистрирован
 
Скачать


 Зарегистрирован:   01 Сен 2011 21:08:12
 Размер:   4,93 GB  (
 Рейтинг:   4,9 (Голосов: 215)
 Поблагодарили:   819
 Проверка:   Оформление проверено модератором 03 Сен 2011 14:21:30
Как cкачать  ·  Как раздать  ·  Правильно оформить  ·  Поднять ратио!  
aphranius3
Стаж: 8 лет 11 мес.
Сообщений: 214
Ratio: 9,439
100%
Большое спасибо
semenich2
Стаж: 8 лет 11 мес.
Сообщений: 698
Ratio: 2,928
99.7%
ооо сама на себя не похожа
tattoo33
Стаж: 9 лет 8 мес.
Сообщений: 14
Ratio: 60,608
100%
russia.gif
Болшое при болшое сыпасибо!!! :стеб:
тока Дискография Полюшки началась с 1999 "Любо"
скачал, раздаю...эт факт.
vover&vover ®
 
Стаж: 8 лет 9 мес.
Сообщений: 191
Ratio: 151,199
Раздал: 23,48 TB
Поблагодарили: 9669
100%
nnm-club.gif
Если остальные альбомы найду в таком же качестве, то раздачу дополню...
Borkop
Стаж: 9 лет 4 мес.
Сообщений: 35
Ratio: 2,426
Поблагодарили: 10
100%
russia.gif
На сингле 2006 г. есть еще бонус трек видео.
Для полного счастья хотелось бы добавить в релиз.
Kokovana
Стаж: 8 лет 2 мес.
Сообщений: 71
Ratio: 1,075
90.13%
russia.gif
=)
FUNTIKAL
Стаж: 7 лет 9 мес.
Сообщений: 21
Ratio: 13,314
100%
Спасибо большое!!!!
mihail03021994
Стаж: 7 лет
Сообщений: 8
Ratio: 35,91
75.5%
Очень интересно. Пелагею уважаю. Талантище. Спасибо релизеру.
Duif
Стаж: 9 лет 3 мес.
Сообщений: 55
Ratio: 14,516
Поблагодарили: 62
80.68%
ussr.gif
А зачем все песни альбома одним файлом? Это самое неудобное, что можно придумать.
shef1533
Стаж: 12 лет 9 мес.
Сообщений: 57
Ratio: 7,632
100%
Откуда: Москва
russia.gif
СУПЕР!!!!
Показать сообщения:   
Начать новую тему   Ответить на тему    Торрент-трекер NNM-Club -> Other Styles -> Folk (Lossless) Часовой пояс: GMT + 3
Страница 1 из 1