Классический форум-трекер
canvas not supported
Нас вместе: 4 103 798

Неадекватные люди (2010) BDRip [H.264/720р-LQ]


Страницы:  1, 2  След. 
 
RSS
Начать новую тему   Ответить на тему    Торрент-трекер NNM-Club -> Отечественное кино -> Отечественные Фильмы (HD*Rip/LQ, DVDRip, SATRip, VHSRip)
Автор Сообщение
Krucha ®
Стаж: 10 лет 11 мес.
Сообщений: 3647
Ratio: 163,335
Поблагодарили: 253103
100%
Откуда: Запорожье
ussr.gif
Неадекватные люди (2010) BDRip [H.264/720р-LQ]
Производство: Россия, Cinema Prime Film
Жанр: Комедия

Режиссер: Роман Каримов
Актеры: Илья Любимов, Ингрид Олеринская, Евгений Цыганов, Юлия Такшина, Артем Душкин, Полина Иосилевич, Марина Зайцева, Анастасия Федоркова, Назар Ас-Самаррай, Анна Колобаева

Описание:
Тихий и воспитанный Виталик пытается начать жизнь с нуля в новом городе. Но странным образом ему на пути попадаются одни сумасшедшие. Его соседкой по лестничной площадке оказывается взбалмошная Кристина, стремящаяся переделать его из задрота в нормального мужика, на новой работе атакует похотливая начальница и даже психолог, помогающий ему совладать со всем этим — и тот оказывается садо-мазохистом. Виталик кажется единственным адекватным человеком здесь. Но так ли это на самом деле?



Релиз от:
Продолжительность: 01:46:17
Качество видео: BDRip

Видеокодек: AVC/H.264, 1280x720, ~2490 Kbps
Аудио: AC3, 6 ch, 448 Kbps
Общее
Уникальный идентификатор : 173259944815380915275355441749651138509 (0x8258A6CE7D5A8E93A1D280F67498A7CD)
Полное имя : E:\торрент\Неадекватные люди 2010 x264 BDRip_[nnm-club.me].mkv
Формат : Matroska
Размер файла : 2,18 Гбайт
Продолжительность : 1 ч. 46 м.
Общий поток : 2938 Кбит/сек
Дата кодирования : UTC 2011-09-01 17:42:07
Программа кодирования : mkvmerge v4.9.1 ('Ich will') сборка от Jul 11 2011 23:53:15
Библиотека кодирования : libebml v1.2.1 + libmatroska v1.1.1

Видео
Идентификатор : 1
Формат : AVC
Формат/Информация : Advanced Video Codec
Профиль формата : High@L4.0
Параметр CABAC формата : Да
Параметр ReFrames формата : 9 кадров
Идентификатор кодека : V_MPEG4/ISO/AVC
Продолжительность : 1 ч. 46 м.
Битрейт : 2490 Кбит/сек
Ширина : 1280 пикс.
Высота : 720 пикс.
Соотношение сторон : 16:9
Частота кадров : 23,976 кадр/сек
Цветовое пространство : YUV
Подвыборка цветности : 4:2:0
Битовая глубина : 8 бит
Тип развёртки : Прогрессивная
Бит/(Пиксели*Кадры) : 0.113
Размер потока : 1,80 Гбайт (83%)
Заголовок : Неадекватные люди 2010 x264 BDRip-AVC Gambit
Библиотека кодирования : x264 core 116 r2044 392e762
Настройки программы : cabac=1 / ref=9 / deblock=1:-3:-2 / analyse=0x3:0x133 / me=umh / subme=11 / psy=1 / psy_rd=1.17:0.06 / mixed_ref=1 / me_range=48 / chroma_me=1 / trellis=2 / 8x8dct=1 / cqm=0 / deadzone=21,11 / fast_pskip=1 / chroma_qp_offset=-6 / threads=6 / sliced_threads=0 / nr=0 / decimate=1 / interlaced=0 / bluray_compat=0 / constrained_intra=0 / bframes=12 / b_pyramid=2 / b_adapt=2 / b_bias=0 / direct=3 / weightb=1 / open_gop=0 / weightp=2 / keyint=250 / keyint_min=23 / scenecut=40 / intra_refresh=0 / rc=2pass / mbtree=0 / bitrate=2490 / ratetol=1.0 / qcomp=0.65 / qpmin=0 / qpmax=69 / qpstep=4 / cplxblur=20.0 / qblur=0.5 / ip_ratio=1.35 / pb_ratio=1.30 / aq=2:1.10
Язык : Russian

Аудио
Идентификатор : 2
Формат : AC-3
Формат/Информация : Audio Coding 3
Расширение режима : CM (complete main)
Идентификатор кодека : A_AC3
Продолжительность : 1 ч. 46 м.
Вид битрейта : Постоянный
Битрейт : 448 Кбит/сек
Каналы : 6 каналов
Расположение каналов : Front: L C R, Side: L R, LFE
Частота : 48,0 КГц
Битовая глубина : 16 бит
Метод сжатия : С потерями
Размер потока : 341 Мбайт (15%)
Заголовок : Russia
Язык : Russian

Меню
00:00:00.000 : en:00:00:00.000
00:05:19.569 : en:00:05:19.569
00:12:37.423 : en:00:12:37.423
00:17:41.352 : en:00:17:41.352
00:23:15.894 : en:00:23:15.894
00:27:38.240 : en:00:27:38.240
00:33:24.211 : en:00:33:24.211
00:39:25.780 : en:00:39:25.780
00:44:54.066 : en:00:44:54.066
00:50:08.631 : en:00:50:08.631
00:56:11.159 : en:00:56:11.159
01:05:01.981 : en:01:05:01.981
01:10:57.295 : en:01:10:57.295
01:15:08.421 : en:01:15:08.421
01:21:50.155 : en:01:21:50.155
01:26:24.638 : en:01:26:24.638
01:32:01.266 : en:01:32:01.266
01:35:26.721 : en:01:35:26.721
Скриншоты:


Все релизы этого фильма в Клубе
Время раздачи: с 23:00 до 8:30 (до 5 скачавших)
Neadekvatnyie lyudi 2010 x264 BDRip_[NNM-Club.ru].mkv.torrent
 Торрент: Платиновая раздача  Зарегистрирован
 
Скачать


Примагнититься
 Зарегистрирован:   08 Янв 2019 01:56:34
 Размер:   2,18 GB  (
 Рейтинг:   4,7 (Голосов: 216)
 Поблагодарили:   892
 Проверка:   Оформление проверено модератором 08 Янв 2019 02:06:44
Как cкачать  ·  Как раздать  ·  Правильно оформить  ·  Поднять ратио!  
ved_ved
Стаж: 11 лет 11 мес.
Сообщений: 73
Ratio: 25,883
100%
pirates.png
Один из самых лучших отечественных фильмов из тех , которые я видел за последние 2-3 года. Очень стильный фильм.
Al-xs
Uploader 100+
Стаж: 9 лет
Сообщений: 361
Ratio: 145,38
100%
ussr.gif
Ой-ли? Скачаем- посмотрим...
Юка
Стаж: 9 лет 3 мес.
Сообщений: 396
Ratio: 12,742
100%
ved_ved писал(а): Перейти к сообщению
Один из самых лучших отечественных фильмов из тех , которые я видел за последние 2-3 года. Очень стильный фильм.


Присоединяюсь, фильм шедевр черного юмора :да:
Vlad_67
Стаж: 10 лет
Сообщений: 502
Ratio: 26,267
Раздал: 110,6 TB
Поблагодарили: 2741
100%
ussr.gif
просто замечательный фильм, подтверждаю!
semenich2
Стаж: 9 лет 4 мес.
Сообщений: 698
Ratio: 2,919
94.32%
ved_ved писал(а): Перейти к сообщению
Один из самых лучших отечественных фильмов из тех , которые я видел за последние 2-3 года. Очень стильный фильм.

посмотри "в движении" , чем то схож
krona076
Стаж: 9 лет 9 мес.
Сообщений: 120
Ratio: 1,695
Поблагодарили: 5
100%
качество подтверждаю!
Onyfrii
Стаж: 9 лет 1 мес.
Сообщений: 58
Ratio: 4,016
Поблагодарили: 1
100%
Откуда: берутся дети? Куда: исчезают деньги? Град: Ленинград
ussr.gif
Спасибо)
zuhalter
Стаж: 10 лет 2 мес.
Сообщений: 19
Ratio: 0,473
100%
супер!!!
anti_banin
Стаж: 10 лет 3 мес.
Сообщений: 1
Ratio: 1,165
100%
russia.gif
Рекомендую!СпасибО!
ayzberg
Стаж: 9 лет 10 мес.
Сообщений: 9
Ratio: 10,236
0%
Интересно, это только у меня он тормозит при просмотре? (OS X, VLC, Core2Duo 2.4/4g оперативки), другие фильмы с таким же качеством ваобще без проблем
marsifox
Стаж: 10 лет 2 мес.
Сообщений: 89
Ratio: 3,782
100%
ved_ved писал(а): Перейти к сообщению
Один из самых лучших отечественных фильмов из тех , которые я видел за последние 2-3 года. Очень стильный фильм.
Согласен. Трогательный фильм, хотя режЫсёры задолбали типовыми сценическими схемами. Здесь главные герои - он и она - очень хороши и адекватны.Так "заиндустриализовались" производители, что смотреть практически нечего. Их тоже понять можно. Большей эмоциональностью и развитостью сюжета такие фильмы могут уже превосходить некоторые документальные или художественно-документальные фильмы, пожалуй.

_________________
Я славлю жизни торжество, её достаток: создать приятней одного, чем застрелить десяток....
Предпочитаю музыку в WMA и FLAC (для симфонической), видео - AAC+AVC, контейнеры mp4 (.mkv-с иностран. языками иногда)
космацц
Стаж: 8 лет 11 мес.
Сообщений: 25
Ratio: 0,897
100%
Хороший фильм -- зырьте , не пожалеете.
Единственный момент мне не понравился - переигрывание главной героини в степени отрешенности выражения лица местами .
А так - зачот.
Alone_Kedr
Модератор Сериалов
и Талантов, Uploader 100+, DJ Настроения
Стаж: 5 лет 9 мес.
Сообщений: 3130
Ratio: 3017,89
Поблагодарили: 197007
100%
Откуда: CCCP
ussr.gif
Скриншоты, сэмпл и постер:

_________________
Оформление релизов в разделе Видео | Оформление обновляемых релизов | Присоединяйтесь к игре! Приключения Харли Блин
Доктор сказал, что я не смогу поработить вселенную... Жалкий, наивный раб!
Kedmi
Стаж: 1 год 3 мес.
Сообщений: 1098
Ratio: 9,533
100%
witch.png
Раз 8 лет назад рекомендовали.То надо глянуть
Показать сообщения:   
Начать новую тему   Ответить на тему    Торрент-трекер NNM-Club -> Отечественное кино -> Отечественные Фильмы (HD*Rip/LQ, DVDRip, SATRip, VHSRip) Часовой пояс: GMT + 3
Страницы:  1, 2  След.
Страница 1 из 2