Классический форум-трекер
canvas not supported
Нас вместе: 4 064 854

Разрисованная вуаль / The Painted Veil (2006) [720p] BDRip


 
 
RSS
Начать новую тему   Ответить на тему    Торрент-трекер NNM-Club -> Зарубежное кино -> Зарубежные Фильмы (HD, UHD-LQ)
Автор Сообщение
Krucha ®
Стаж: 9 лет 7 мес.
Сообщений: 3647
Ratio: 163,335
Поблагодарили: 251212
100%
Откуда: Запорожье
ussr.gif
Разрисованная вуаль / The Painted Veil (2006) BDRip
Производство: США, Канада, Китай
Жанр: Драма, Мелодрама
Перевод: Дубляж+Двухголосый закадровый, П.Гланц и И.Королёва+Одноголосый закадровый, Ю.Немахов
Субтитры: Вшитые отключаемые
Язык субтитров: Русские, Английские

Дата мировой премьеры: 20 декабря 2006
Дата российской премьеры: 14 февраля 2007, «Пирамида»
Дата выхода DVD релиза: 23 июля 2009, «CP-Digital»

Режиссер: Джон Кёрран
Продюсер: Антония Барнард, Эдвард Нортон, Рон Нисуонер
Актеры: Наоми Уоттс, Эдвард Нортон, Лив Шрайбер, Тоби Джонс, Дайана Ригг, Энтони Вонг Чау-Санг, Гесан Мейдуо, Чен Шихан, Катрин Эн, Ли Бинь

Описание:
Двадцатые годы ХХ века, молодой врач и его неверная жена, Китти, отправляются в отдалённую деревушку в Китае, чтобы бороться со вспышкой эпидемии холеры. Там поражённая преданностью мужа работе, Китти начинает видеть его в ином свете и снова влюбляется в него…

Продолжительность: 02:04:57
Качество видео: BDRip

Видеокодек: MPEG-4 AVC/H.264
Битрейт видео: ~4078 kbps
Размер кадра: 1280x530
Аудио 1: 48 kHz, AC3, 3/2 (L,C,R,l,r) + LFE ch, ~448.00 kbps avg Дубляж, R5
Аудио 2: 48 kHz, AC3, 3/2 (L,C,R,l,r) + LFE ch, ~640.00 kbps avg Двухголосый закадровый, П.Гланц и И.Королёва
Аудио 3: 48 kHz, AC3, 3/2 (L,C,R,l,r) + LFE ch, ~640.00 kbps avg Одноголосый закадровый, Ю.Немахов
Аудио 4: 48 kHz, AC3, 3/2 (L,C,R,l,r) + LFE ch, ~640.00 kbps avg Оригинальная аудиодорожка (английский)
Общее
Уникальный идентификатор : 217104054352934270475853839221496930232 (0xA354B84D810DFBF6A002B709CDEADFB8)
Полное имя : E:\торрент\The.Painted.Veil.2006.720p_[nnm-club.me].mkv
Формат : Matroska
Размер файла : 5,74 Гбайт
Продолжительность : 2 ч. 4 м.
Общий поток : 6577 Кбит/сек
Название фильма : The Painted Veil (2006) - Release for HDCLUB
Дата кодирования : UTC 2011-09-05 12:52:10
Программа кодирования : mkvmerge v4.9.1 ('Ich will') сборка от Jul 11 2011 23:53:15
Библиотека кодирования : libebml v1.2.1 + libmatroska v1.1.1

Видео
Идентификатор : 1
Формат : AVC
Формат/Информация : Advanced Video Codec
Профиль формата : High@L4.1
Параметр CABAC формата : Да
Параметр ReFrames формата : 6 кадров
Идентификатор кодека : V_MPEG4/ISO/AVC
Продолжительность : 2 ч. 4 м.
Битрейт : 4078 Кбит/сек
Ширина : 1280 пикс.
Высота : 530 пикс.
Соотношение сторон : 2,40:1
Частота кадров : 23,976 кадр/сек
Цветовое пространство : YUV
Подвыборка цветности : 4:2:0
Битовая глубина : 8 бит
Тип развёртки : Прогрессивная
Бит/(Пиксели*Кадры) : 0.251
Размер потока : 3,56 Гбайт (62%)
Заголовок : The Painted Veil (2006) - Release for HDCLUB
Библиотека кодирования : x264 core 116 r2074 2641b9e
Настройки программы : cabac=1 / ref=6 / deblock=1:-3:-3 / analyse=0x3:0x113 / me=umh / subme=10 / psy=1 / psy_rd=1.00:0.00 / mixed_ref=1 / me_range=32 / chroma_me=1 / trellis=2 / 8x8dct=1 / cqm=0 / deadzone=21,11 / fast_pskip=0 / chroma_qp_offset=-2 / threads=6 / sliced_threads=0 / nr=0 / decimate=1 / interlaced=0 / bluray_compat=0 / constrained_intra=0 / bframes=7 / b_pyramid=2 / b_adapt=2 / b_bias=0 / direct=1 / weightb=1 / open_gop=0 / weightp=2 / keyint=250 / keyint_min=23 / scenecut=40 / intra_refresh=0 / rc_lookahead=40 / rc=crf / mbtree=0 / crf=17.0 / qcomp=0.60 / qpmin=10 / qpmax=51 / qpstep=4 / vbv_maxrate=50000 / vbv_bufsize=62500 / crf_max=0.0 / nal_hrd=none / ip_ratio=1.40 / pb_ratio=1.30 / aq=1:0.80
Язык : English

Аудио #1
Идентификатор : 2
Формат : AC-3
Формат/Информация : Audio Coding 3
Расширение режима : CM (complete main)
Идентификатор кодека : A_AC3
Продолжительность : 2 ч. 4 м.
Вид битрейта : Постоянный
Битрейт : 448 Кбит/сек
Каналы : 6 каналов
Расположение каналов : Front: L C R, Side: L R, LFE
Частота : 48,0 КГц
Битовая глубина : 16 бит
Метод сжатия : С потерями
Размер потока : 400 Мбайт (7%)
Заголовок : AC3 5.1ch 448 kbps - Дубляж, R5
Язык : Russian

Аудио #2
Идентификатор : 3
Формат : AC-3
Формат/Информация : Audio Coding 3
Расширение режима : CM (complete main)
Идентификатор кодека : A_AC3
Продолжительность : 2 ч. 4 м.
Вид битрейта : Постоянный
Битрейт : 640 Кбит/сек
Каналы : 6 каналов
Расположение каналов : Front: L C R, Side: L R, LFE
Частота : 48,0 КГц
Битовая глубина : 16 бит
Метод сжатия : С потерями
Размер потока : 572 Мбайт (10%)
Заголовок : AC3 5.1ch 640 kbps - Двухголосый, П.Гланц и И.Королева
Язык : Russian

Аудио #3
Идентификатор : 4
Формат : AC-3
Формат/Информация : Audio Coding 3
Расширение режима : CM (complete main)
Идентификатор кодека : A_AC3
Продолжительность : 2 ч. 4 м.
Вид битрейта : Постоянный
Битрейт : 640 Кбит/сек
Каналы : 6 каналов
Расположение каналов : Front: L C R, Side: L R, LFE
Частота : 48,0 КГц
Битовая глубина : 16 бит
Метод сжатия : С потерями
Размер потока : 572 Мбайт (10%)
Заголовок : AC3 5.1ch 640 kbps - Одноголосый, Ю.Немахов
Язык : Russian

Аудио #4
Идентификатор : 5
Формат : AC-3
Формат/Информация : Audio Coding 3
Расширение режима : CM (complete main)
Идентификатор кодека : A_AC3
Продолжительность : 2 ч. 4 м.
Вид битрейта : Постоянный
Битрейт : 640 Кбит/сек
Каналы : 6 каналов
Расположение каналов : Front: L C R, Side: L R, LFE
Частота : 48,0 КГц
Битовая глубина : 16 бит
Метод сжатия : С потерями
Размер потока : 572 Мбайт (10%)
Заголовок : AC3 5.1ch 640 kbps
Язык : English

Текст #1
Идентификатор : 6
Формат : UTF-8
Идентификатор кодека : S_TEXT/UTF8
Идентификатор кодека/Информация : UTF-8 Plain Text
Язык : Russian

Текст #2
Идентификатор : 7
Формат : UTF-8
Идентификатор кодека : S_TEXT/UTF8
Идентификатор кодека/Информация : UTF-8 Plain Text
Язык : English

Меню
00:00:00.000 : en:Chapter 1
00:10:41.683 : en:Chapter 2
00:22:23.384 : en:Chapter 3
00:31:34.851 : en:Chapter 4
00:40:41.022 : en:Chapter 5
00:50:23.896 : en:Chapter 6
01:01:50.832 : en:Chapter 7
01:13:21.188 : en:Chapter 8
01:24:20.097 : en:Chapter 9
01:33:36.611 : en:Chapter 10
01:43:15.189 : en:Chapter 11
01:58:08.248 : en:Chapter 12
Скриншоты:
The.Painted.Veil.2006.720p_[NNM-Club.ru].mkv.torrent
 Торрент: Платиновая раздача  Зарегистрирован
 
Скачать


Примагнититься
 Зарегистрирован:   05 Дек 2018 13:51:00
 Размер:   5,74 GB  (
 Рейтинг:   4,8 (Голосов: 48)
 Поблагодарили:   245
 Проверка:   Оформление проверено модератором 05 Дек 2018 15:08:56
Как cкачать  ·  Как раздать  ·  Правильно оформить  ·  Поднять ратио!  
Shuran80
Свободный релизер
 

Online
Стаж: 9 лет 8 мес.
Сообщений: 3174
Ratio: 1197,708
Раздал: 86,82 TB
Поблагодарили: 184895
100%
Откуда: Ленинград
ussr.gif
Krucha
Автор релиза с хдклуба не против, что выложили здесь? :подмигивание:

_________________
Внимание! Временно отсутствую на своих раздачах. Просьба понять и простить. )
Krucha ®
Стаж: 9 лет 7 мес.
Сообщений: 3647
Ratio: 163,335
Поблагодарили: 251212
100%
Откуда: Запорожье
ussr.gif
Shuran80
Он просто счастлив!!!
Devlad Спасибо тебе еще разочек! :выпивают:
Demasik
Стаж: 8 лет 2 мес.
Сообщений: 533
Ratio: 81,908
Поблагодарили: 34233
100%
russia.gif
Krucha
Спасибо за проделанную работу! :респект:
Показать сообщения:   
Начать новую тему   Ответить на тему    Торрент-трекер NNM-Club -> Зарубежное кино -> Зарубежные Фильмы (HD, UHD-LQ) Часовой пояс: GMT + 3
Страница 1 из 1