Классический форум-трекер
canvas not supported
Нас вместе: 4 147 189

Без улик / Sans laisser de traces (2010) DVD5


 
 
RSS
Начать новую тему   Ответить на тему    Торрент-трекер NNM-Club -> Архив торрентов -> Архив Видео
Автор Сообщение
Demasik ®
Стаж: 10 лет 5 мес.
Сообщений: 533
Ratio: 81.908
Поблагодарили: 34447
100%
russia.gif
Без улик / Sans laisser de traces (2010) DVD5
Русское название: Без улик
Оригинальное название: Sans laisser de traces
Год выпуска: 2010
Производство: Франция, Бельгия
Студия: Banque Populaire Images, Wild Bunch
Жанр: Триллер
Перевод: Двуголосый закадровый
Субтитры: нет




Дата мировой премьеры: 10 марта 2010

Режиссер: Грегори Виньерон
Продюсер: Женевьева Лемаль
Актеры: Бенуа Мажимель, Франсуа-Хавьер Демасон, Джули Гайе, Леа Сейду, Жан-Мари Винлин, Доминик Лабурье, Андре Вильм

Описание фильма:
Этьен скоро должен унаследовать от тестя его компанию, производящую чистящие средства, но одна встреча с другом детства, Патриком, всё меняет. Этьен признается, что 12 лет назад украл у одного химика формулу, благодаря которой его карьерный рост ускорился в разы. Патрик советует Этьену найти этого химика и вознаградить его по заслугам. Всё усложняется после того, как Патрик убивает химика…


Релиз группа: &

Продолжительность: 01:35:45
Качество видео: DVD5

Видеокодек: MPEG-2
Битрейт видео: ~5541 kb/s
Размер кадра: NTSC 16:9 (720x480@853x480)
Аудиокодек и битрейт аудио:
Аудио #1: Французкий ( AC3, 6 ch, 448 kb/s)
Аудио #2: Русский ( AC3, 6 ch, 384 kb/s )
Дополнительно: нет

Общее
Полное имя : D:\Без улик\Без улик\VIDEO_TS\VTS_01_1.VOB
Формат : MPEG-PS
Размер файла : 1024 Мбайт
Продолжительность : 22 м.
Общий поток : 6502 Кбит/сек

Видео
Идентификатор : 224 (0xE0)
Формат : MPEG Video
Версия формата : Version 2
Профиль формата : Main@Main
Параметр BVOP формата : Да
Параметр матрицы формата : Выборочная
Продолжительность : 22 м.
Вид битрейта : Переменный
Битрейт : 5541 Кбит/сек
Максимальный битрейт : 8904 Кбит/сек
Ширина : 720 пикселей
Высота : 480 пикселей
Соотношение сторон : 16:9
Частота кадров : 29,970 кадров/сек
Стандарт вещания : NTSC
Цветовое пространство : YUV
Субдискретизация насыщенности : 4:2:0
Битовая глубина : 8 бит
Тип развёртки : Прогрессивная
Порядок развёртки : Нижнее поле первое
Метод сжатия : С потерями
Бит/(Пиксели*Кадры) : 0.535
Размер потока : 873 Мбайт (85%)

Аудио #1
Идентификатор : 189 (0xBD)-128 (0x80)
Формат : AC-3
Формат/Информация : Audio Coding 3
Расширение режима : CM (complete main)
Режим смешивания : DVD-Video
Продолжительность : 22 м.
Вид битрейта : Постоянный
Битрейт : 448 Кбит/сек
Каналы : 6 каналов
Расположение каналов : Front: L C R, Side: L R, LFE
Частота : 48,0 КГц
Битовая глубина : 16 бит
Метод сжатия : С потерями
Размер потока : 70,5 Мбайт (7%)

Аудио #2
Идентификатор : 189 (0xBD)-129 (0x81)
Формат : AC-3
Формат/Информация : Audio Coding 3
Расширение режима : CM (complete main)
Режим смешивания : DVD-Video
Продолжительность : 22 м.
Вид битрейта : Постоянный
Битрейт : 384 Кбит/сек
Каналы : 6 каналов
Расположение каналов : Front: L C R, Side: L R, LFE
Частота : 48,0 КГц
Битовая глубина : 16 бит
Метод сжатия : С потерями
Размер потока : 60,5 Мбайт (6%)

Меню

Title: Без улик
Size: 4.37 Gb ( 4 587 230,00 KBytes ) - DVD-5
Enabled regions: 1, 2, 3, 4, 5, 6, 7, 8

VTS_01 :
Play Length: 01:35:45
Video: NTSC 16:9 (720x480) VBR, Auto Letterboxed
Audio:
Francais (Dolby AC3, 6 ch)
Russian (Dolby AC3, 6 ch)
Скриншоты:
Исходник BDRemux 18,5 GB, большое спасибо virtuhan.
Меню статичное, не озвученное.
Обработка производилась:
PhotoShop - работа над меню,
tsMuxer - демуксинг MKV,
aec3to - кодирование французкой дорожки DTS в AC3,
Sony Vegas - синхронизация аудио,
DVD Architect - создание DVD.
Работоспособность проверена на софтовом плеере Windows Media, PowerDVD и бытовом BBK.
Записано программой ImgBurn на DVD5-R болванку.

Время раздачи: С 22:00 до 9:00 (время Московское) до 5 скачавших
Танцую за "СПАСИБО" Image Скачали фильм, напишите комментарий!
[NNM-Club.ru]_Bez ulik.torrent
 Торрент: Золотая раздача  Зарегистрирован
 
Зарегистрируйтесь и скачайте торрент!
11.7 KB

 Зарегистрирован:   06 Сен 2011 10:22:53
 Размер:   4.37 GB  (
 Рейтинг:    (Голосов: 9)
 Поблагодарили:   37
 Проверка:   Оформление проверено модератором 06 Сен 2011 12:40:44
Как cкачать  ·  Как раздать  ·  Правильно оформить  ·  Поднять ратио!  
ARMORER
Стаж: 13 лет 8 мес.
Сообщений: 288
Ratio: 26.533
Раздал: 17.97 TB
Поблагодарили: 6058
100%
ukraine.gif
Что то качество не очень, как для 18,5 гб исходника.
Demasik ®
Стаж: 10 лет 5 мес.
Сообщений: 533
Ratio: 81.908
Поблагодарили: 34447
100%
russia.gif
ARMORER писал(а): Перейти к сообщению
Что то качество не очень, как для 18,5 гб исходника.

Я так понял что ты сравниваешь качество видео DVD5(4,7 GB) и BDRemux(18,5 GB).
1Almaz777
Стаж: 10 лет 11 мес.
Сообщений: 10
Ratio: 6.459
6.07%
cambodia.gif
Двуголосый закадровый любительский и проф перевод? в сэмпле вобще русского нету))
Топик был перенесен из форума Зарубежные Фильмы (DVD) в форум Архив Видео

Причина переноса: сида не было более месяца.
Alex_shadow
Показать сообщения:   
Начать новую тему   Ответить на тему    Торрент-трекер NNM-Club -> Архив торрентов -> Архив Видео Часовой пояс: GMT + 3
Страница 1 из 1