Классический форум-трекер
canvas not supported
Нас вместе: 4 079 282

Последнее испытание Шаолиня / Деревянные люди Шаолиня / Shao Lin mu ren xiang / Shaolin Wooden Men (1976) DVDRip [H.264]


 
 
RSS
Начать новую тему   Ответить на тему    Торрент-трекер NNM-Club -> Зарубежное кино -> Азиатское кино (HD*Rip/LQ, DVDRip, SATRip, VHSRip)
Автор Сообщение
Hulk 2008 ®
Стаж: 8 лет 7 мес.
Сообщений: 188
Ratio: 231,426
Раздал: 4,072 TB
Поблагодарили: 1189
100%
nnm-club.gif
Последнее испытание Шаолиня / Shaolin Wooden Men (1976) DVDRip [H.264]
Производство: Тайвань, Гонконг / Lo Wei Motion Picture Company, Toei Central Films
Жанр: боевик

Режиссер: Чэнь Чи-Хва
Актеры: Джеки Чан, Чун-ер Ланг, Кан Чин, Чан Пинъюй, И-Фэй Чанг, Лу Чианг Чао, Вэй Оун Чан, Кэм Чунг, Хсин Чин, Кан Хо

Описание:
Молодой парень по прозвищу Молчун — сирота, который принимает обет молчания после гибели своего отца в от рук мастера боевых искусств. Проживая в шаолиньском монастыре, Молчун сближается с опасным заключённым, который обучает его секретным способам смертельного кунг-фу. Заметив упорство и стремление юноши стать мастером кунг-фу, мастера обучают его другим техникам этого боевого искусства. Молчун преодолевает последнее испытание Шаолиня и отправляется на поиски убийцы своего отца…


Возраст: 12+ (зрителям, достигшим 12 лет)

Продолжительность: 01:43:10
Качество видео: DVDRip
Перевод: 1 Профессиональный многоголосый (ДТВ), английский дубляж, китайский оригинал
Субтитры: Английские

Видеокодек: AVC/H.264, 720x304, ~2177 Kbps
Аудио #1: AC3, 2 ch, 192 Kkps - Русский многоголосый (ДТВ)
Аудио #2: AC3, 6 ch, 448 Kkps - Английский дубляж
Аудио #3: AC3, 6 ch, 448 Kkps - Китайский, Оригинал

Полное имя : D:\Фильмы D\Shaolin.Wooden.Men.1976.AVC.Rus.Eng.Chi.mkv
Формат : Matroska
Версия формата : Version 2
Размер файла : 2,40 Гбайт
Продолжительность : 1 ч. 43 м.
Общий поток : 3331 Кбит/сек
Дата кодирования : UTC 2011-07-05 16:18:12
Программа кодирования : mkvmerge v4.8.0 ('I Got The...') built on May 24 2011 03:12:58
Библиотека кодирования : libebml v1.2.0 + libmatroska v1.1.0

Видео
Идентификатор : 1
Формат : AVC
Формат/Информация : Advanced Video Codec
Профиль формата : High@L4.1
Параметр CABAC формата : Да
Параметр ReFrames формата : 9 кадров
Режим смешивания : Header stripping
Идентификатор кодека : V_MPEG4/ISO/AVC
Продолжительность : 1 ч. 43 м.
Битрейт : 2177 Кбит/сек
Ширина : 720 пикселей
Высота : 304 пикселя
Соотношение сторон : 2,35:1
Частота кадров : 25,000 кадров/сек
Цветовое пространство : YUV
Субдискретизация насыщенности : 4:2:0
Битовая глубина : 8 бит
Тип развёртки : Прогрессивная
Бит/(Пиксели*Кадры) : 0.398
Размер потока : 1,57 Гбайт (65%)
Заголовок : Последнее испытание Шаолиня / Деревянные люди Шаолиня / Shaolin Wooden Men / Shao Lin mu ren xiang (1976) DVDRip-AVC by Gellard
Библиотека кодирования : x264 core 115 r1995 c1e60b9
Настройки программы : cabac=1 / ref=9 / deblock=1:-3:-3 / analyse=0x3:0x113 / me=umh / subme=10 / psy=1 / psy_rd=1.00:0.00 / mixed_ref=1 / me_range=32 / chroma_me=1 / trellis=2 / 8x8dct=1 / cqm=0 / deadzone=21,11 / fast_pskip=1 / chroma_qp_offset=-4 / threads=9 / sliced_threads=0 / nr=0 / decimate=1 / interlaced=0 / bluray_compat=0 / constrained_intra=0 / bframes=9 / b_pyramid=2 / b_adapt=2 / b_bias=0 / direct=1 / weightb=1 / open_gop=0 / weightp=2 / keyint=250 / keyint_min=25 / scenecut=40 / intra_refresh=0 / rc_lookahead=40 / rc=crf / mbtree=0 / crf=15.8 / qcomp=0.60 / qpmin=10 / qpmax=51 / qpstep=4 / vbv_maxrate=62500 / vbv_bufsize=50000 / crf_max=0.0 / nal_hrd=none / ip_ratio=1.40 / pb_ratio=1.30 / aq=1:0.90
Язык : Chinese

Аудио #1
Идентификатор : 2
Формат : AC-3
Формат/Информация : Audio Coding 3
Расширение режима : CM (complete main)
Режим смешивания : Header stripping
Идентификатор кодека : A_AC3
Продолжительность : 1 ч. 43 м.
Вид битрейта : Постоянный
Битрейт : 192 Кбит/сек
Каналы : 2 канала
Расположение каналов : Front: L R
Частота : 48,0 КГц
Битовая глубина : 16 бит
Метод сжатия : С потерями
Размер потока : 142 Мбайт (6%)
Заголовок : Многоголосый (ДТВ) AC3 2.0 @ 192 kbps
Язык : Russian

Аудио #2
Идентификатор : 3
Формат : AC-3
Формат/Информация : Audio Coding 3
Расширение режима : CM (complete main)
Режим смешивания : Header stripping
Идентификатор кодека : A_AC3
Продолжительность : 1 ч. 43 м.
Вид битрейта : Постоянный
Битрейт : 448 Кбит/сек
Каналы : 6 каналов
Расположение каналов : Front: L C R, Side: L R, LFE
Частота : 48,0 КГц
Битовая глубина : 16 бит
Метод сжатия : С потерями
Размер потока : 331 Мбайт (13%)
Заголовок : Дубляж AC3 5.1 @ 448 kbps
Язык : English

Аудио #3
Идентификатор : 4
Формат : AC-3
Формат/Информация : Audio Coding 3
Расширение режима : CM (complete main)
Режим смешивания : Header stripping
Идентификатор кодека : A_AC3
Продолжительность : 1 ч. 43 м.
Вид битрейта : Постоянный
Битрейт : 448 Кбит/сек
Каналы : 6 каналов
Расположение каналов : Front: L C R, Side: L R, LFE
Частота : 48,0 КГц
Битовая глубина : 16 бит
Метод сжатия : С потерями
Размер потока : 331 Мбайт (13%)
Заголовок : Оригинал AC3 5.1 @ 448 kbps
Язык : Chinese

Текст
Идентификатор : 5
Формат : UTF-8
Идентификатор кодека : S_TEXT/UTF8
Идентификатор кодека/Информация : UTF-8 Plain Text
Заголовок : Английские
Язык : English
Скриншоты:
Отреставрируем и восстановим всем Клубом!

Все одноименные релизы в Клубе

Время раздачи: до 5 скачавших, потом 19:00 - 7:00 (временами 24/7)
[NNM-Club.ru]_Shaolin.Wooden.Men.1976.AVC.Rus.Eng.Chi.mkv.torrent
 Торрент: Платиновая раздача  Зарегистрирован
 
Скачать


Примагнититься
 Зарегистрирован:   07 Сен 2011 03:13:26
 Размер:   2,4 GB  (
 Рейтинг:   4,9 (Голосов: 43)
 Поблагодарили:   144
 Проверка:   Оформление проверено модератором 07 Сен 2011 20:57:07
Как cкачать  ·  Как раздать  ·  Правильно оформить  ·  Поднять ратио!  

_________________

Невезучий
Стаж: 8 лет 5 мес.
Сообщений: 97
Ratio: 7,562
14.02%
Откуда: Крымская область, СССР
ussr.gif
Забираю
velkos
Стаж: 10 лет 6 мес.
Сообщений: 284
Ratio: 1,235
100%
Спасибо... , забираю ....
liletko
Стаж: 9 лет
Сообщений: 6
Ratio: 2,11
60%
Спасибо. Этот фильм не помню, буду качать :клево:
Показать сообщения:   
Начать новую тему   Ответить на тему    Торрент-трекер NNM-Club -> Зарубежное кино -> Азиатское кино (HD*Rip/LQ, DVDRip, SATRip, VHSRip) Часовой пояс: GMT + 3
Страница 1 из 1