Классический форум-трекер
canvas not supported
Нас вместе: 4 084 251
Платим за отзывы

Тор / Thor (2011) HDRip


 
 
RSS
Начать новую тему   Ответить на тему    Торрент-трекер NNM-Club -> Зарубежное кино -> Зарубежные Фильмы (HD*Rip/LQ, DVDRip, SATRip, VHSRip)
Автор Сообщение
Sедой ®
Стаж: 9 лет 3 мес.
Сообщений: 3057
Ratio: 5117,534
Поблагодарили: 643589
100%
Откуда: Донецк
Тор / Thor (2011) HDRip
Русское название: Тор
Оригинальное название: Thor
Год выпуска: 2011
Производство: США, Paramount Pictures, Marvel Entertainment, Marvel Studios
Жанр: Фэнтези, Боевик, Драма, Приключения
Перевод: Дублированный [лицензия]
Субтитры: Отсутствуют



Дата мировой премьеры: 21 апреля 2011
Дата российской премьеры: 28 апреля 2011, «Централ Партнершип»
Дата выхода DVD релиза: Октябрь 2011, «Юниверсал Пикчерс Рус»

Режиссер: Кеннет Брэна
Продюсер: Кевин Файги, Виктория Алонсо, Дэвид Майсел
Актеры: Натали Портман, Энтони Хопкинс, Крис Хемсворт, Том Хиддлстон, Стеллан Скарсгард, Кэт Деннингс, Кларк Грегг, Идрис Эльба, Колм Фиор, Рэй Стивенсон

Описание фильма:
Эпическое приключение происходит как на нашей планете Земля, так и в вымышленном королевстве богов Асгарде. В центре истории — Могучий Тор, сильный, но высокомерный воин, чьи безрассудные поступки возрождают древнюю войну в Асгарде. Тора отправляют в ссылку на Землю, лишают сил и заставляют жить среди обычных людей в качестве наказани. Оказавшись на Земле, он знакомится с молодым доктором Джейн Фостер, с которой у него развиваются отношения. Кроме того, Тор должен остановить своего брата Локи, который намерен стать новым царём Асгарда.

Продолжительность: 01:54:50
Качество видео: HDRip [Рип с BDRip 720p]

Видеокодек: Xvid
Битрейт видео: ~716 Kbit/s
Размер кадра: 640x272
Аудиокодек: MP3 2.0
Битрейт аудио: 128 Kbit/s
Сэмпл: Скачать
Общее
Полное имя : D:\Торренты\Tor.2011.HDRip.avi
Формат : AVI
Формат/Информация : Audio Video Interleave
Размер файла : 701 Мбайт
Продолжительность : 1 ч. 54 м.
Общий поток : 854 Кбит/сек
Программа кодирования : VirtualDubMod 1.5.4.1 (build 2178/release)
Библиотека кодирования : VirtualDubMod build 2178/release

Видео
Идентификатор : 0
Формат : MPEG-4 Visual
Профиль формата : Advanced Simple@L5
Параметр BVOP формата : 2
Параметр QPel формата : Нет
Параметр GMC формата : Без точки перехода
Параметр матрицы формата : Выборочная
Идентификатор кодека : XVID
Идентификатор кодека/Подсказка : XviD
Продолжительность : 1 ч. 54 м.
Битрейт : 716 Кбит/сек
Ширина : 640 пикс.
Высота : 272 пикс.
Соотношение сторон : 2,35:1
Частота кадров : 23,976 кадр/сек
Цветовое пространство : YUV
Подвыборка цветности : 4:2:0
Битовая глубина : 8 бит
Тип развёртки : Прогрессивная
Метод сжатия : С потерями
Бит/(Пиксели*Кадры) : 0.172
Размер потока : 588 Мбайт (84%)
Библиотека кодирования : XviD 58

Аудио
Идентификатор : 1
Формат : MPEG Audio
Версия формата : Version 1
Профиль формата : Layer 3
Идентификатор кодека : 55
Идентификатор кодека/Подсказка : MP3
Продолжительность : 1 ч. 54 м.
Вид битрейта : Постоянный
Битрейт : 128 Кбит/сек
Каналы : 2 канала
Частота : 48,0 КГц
Метод сжатия : С потерями
Размер потока : 105 Мбайт (15%)
Выравнивание : Соединение по промежуткам
Продолжительность промежутка : 42 мс. (1,00 видеокадр)
Время предзагрузки промежутка : 504 ms
Библиотека кодирования : LAME3.98r
Настройки программы : -m s -V 4 -q 7 -lowpass 17 -b 128

Скриншоты:

Время раздачи: 24/7 по возможности
[NNM-Club.ru]_Tor.2011.HDRip.avi.torrent
 Торрент: Платиновая раздача  Зарегистрирован
 
Скачать


Примагнититься
 Зарегистрирован:   09 Сен 2011 09:51:34
 Размер:   701 MB  (
 Рейтинг:   4,7 (Голосов: 33)
 Поблагодарили:   123
 Проверка:   Оформление проверено модератором 09 Сен 2011 13:12:23
Как cкачать  ·  Как раздать  ·  Правильно оформить  ·  Поднять ратио!  
Loading...
rafikvmaksim
Стаж: 8 лет 9 мес.
Сообщений: 3
Ratio: 2,436
1.96%
russia.gif
как перевод?
bynaxukr
Стаж: 8 лет 6 мес.
Сообщений: 17
Ratio: 2,616
100%
Откуда: Чернигов
ukraine.gif
Спосибо за релиз!!! Посмотрим что он представляет из с :задумался:
Fletcher68
Стаж: 9 лет 2 мес.
Сообщений: 497
Ratio: 16,849
Раздал: 13,26 TB
100%
ussr.gif
Звук слабый.
Перекинул на флешку, смотрел на ТВ, иногда приходилось до 100% увеличивать.
А так и картинка ясная, и перевод хороший.

_________________
Иной раз, судьба берет за волосы и мордой так - в счастье, в счастье! ...
Ritd
Стаж: 10 лет
Сообщений: 29
Ratio: 2,195
4.47%
Мда, не знал что среди Асов были негры и китайцы. Хоть просветился по скандинавской мифологии! :(
mihails
Стаж: 11 лет 9 мес.
Сообщений: 698
Ratio: 14,494
100%
latvia.gif
Мне кажется,что даже детям не будет интересно.Фильм просмотрел полностью,но всё равно благодарен за работу залившему.Спасибо.
Показать сообщения:   
Начать новую тему   Ответить на тему    Торрент-трекер NNM-Club -> Зарубежное кино -> Зарубежные Фильмы (HD*Rip/LQ, DVDRip, SATRip, VHSRip) Часовой пояс: GMT + 3
Страница 1 из 1