Классический форум-трекер
canvas not supported
Нас вместе: 4 083 678
Платим за отзывы

Тор / Thor (2011) DVD5


Страницы:  1, 2, 3  След. 
 
RSS
Начать новую тему   Ответить на тему    Торрент-трекер NNM-Club -> Архив торрентов -> Архив Видео
Автор Сообщение
Demasik ®
Стаж: 9 лет 2 мес.
Сообщений: 533
Ratio: 81,908
Поблагодарили: 34306
100%
russia.gif
Тор / Thor (2011) DVD5
Русское название: Тор
Оригинальное название: Thor
Год выпуска: 2011
Производство: США
Студия: Paramount Pictures, Marvel Entertainment
Бюджет: $150 000 000
Жанр: Фэнтези, Боевик, Приключения
Перевод: Дублированный
Субтитры: нет




Дата мировой премьеры: 21 апреля 2011
Дата российской премьеры: 28 апреля 2011, «Централ Партнершип»
Дата выхода DVD релиза: Октябрь 2011, «Юниверсал Пикчерс Рус»

Режиссер: Кеннет Брэна, Джосс Уидон
Продюсер: Кевин Файги, Виктория Алонсо, Дэвид Майсел
Актеры: Крис Хемсворт, Натали Портман, Энтони Хопкинс, Том Хиддлстон, Стеллан Скарсгард, Кэт Деннингс, Кларк Грегг, Идрис Эльба, Колм Фиор, Рэй Стивенсон

Описание фильма:
Эпическое приключение происходит как на нашей планете Земля, так и в вымышленном королевстве богов Асгарде. В центре истории — Могучий Тор, сильный, но высокомерный воин, чьи безрассудные поступки возрождают древнюю войну в Асгарде. Тора отправляют в ссылку на Землю, лишают сил и заставляют жить среди обычных людей в качестве наказания…


Релиз группа: &

Продолжительность: 01:54:51
Качество видео: DVD5

Видеокодек: MPEG-2
Битрейт видео: ~4131 kb/s
Размер кадра: PAL 16:9 (720x576@1024x576)
Аудиокодек и битрейт аудио:
Аудио #1: Английский ( AC3, 6 ch, 448 kb/s)
Аудио #2: Русский ( AC3, 6 ch, 448 kb/s )
Дополнительно: нет
Общее
Полное имя : D:\Тор\Тор\VIDEO_TS\VTS_01_1.VOB
Формат : MPEG-PS
Размер файла : 1024 Мбайт
Продолжительность : 27 м.
Общий поток : 5130 Кбит/сек

Видео
Идентификатор : 224 (0xE0)
Формат : MPEG Video
Версия формата : Version 2
Профиль формата : Main@Main
Параметр BVOP формата : Да
Параметр матрицы формата : Выборочная
Продолжительность : 27 м.
Вид битрейта : Переменный
Битрейт : 4131 Кбит/сек
Максимальный битрейт : 8904 Кбит/сек
Ширина : 720 пикселей
Высота : 576 пикселей
Соотношение сторон : 16:9
Частота кадров : 25,000 кадров/сек
Стандарт вещания : PAL
Цветовое пространство : YUV
Субдискретизация насыщенности : 4:2:0
Битовая глубина : 8 бит
Тип развёртки : Прогрессивная
Порядок развёртки : Нижнее поле первое
Метод сжатия : С потерями
Бит/(Пиксели*Кадры) : 0.398
Размер потока : 825 Мбайт (81%)

Аудио #1
Идентификатор : 189 (0xBD)-128 (0x80)
Формат : AC-3
Формат/Информация : Audio Coding 3
Расширение режима : CM (complete main)
Режим смешивания : DVD-Video
Продолжительность : 27 м.
Вид битрейта : Постоянный
Битрейт : 448 Кбит/сек
Каналы : 6 каналов
Расположение каналов : Front: L C R, Side: L R, LFE
Частота : 48,0 КГц
Битовая глубина : 16 бит
Метод сжатия : С потерями
Размер потока : 89,4 Мбайт (9%)

Аудио #2
Идентификатор : 189 (0xBD)-129 (0x81)
Формат : AC-3
Формат/Информация : Audio Coding 3
Расширение режима : CM (complete main)
Режим смешивания : DVD-Video
Продолжительность : 27 м.
Вид битрейта : Постоянный
Битрейт : 448 Кбит/сек
Каналы : 6 каналов
Расположение каналов : Front: L C R, Side: L R, LFE
Частота : 48,0 КГц
Битовая глубина : 16 бит
Метод сжатия : С потерями
Размер потока : 89,4 Мбайт (9%)

Меню
Title: Тор
Size: 4.36 Gb ( 4 575 550,00 KBytes ) - DVD-5
Enabled regions: 1, 2, 3, 4, 5, 6, 7, 8

VTS_01 :
Play Length: 01:54:51
Video: PAL 16:9 (720x576) VBR, Auto Letterboxed
Audio:
English (Dolby AC3, 6 ch)
Russian (Dolby AC3, 6 ch)
Скриншоты:
Исходник BDRemux 31,9 GB, большое спасибо Serg1004.
Меню статичное, полностью озвученное.
Обработка производилась:
PhotoShop - работа над меню,
tsMuxer - демуксинг m2ts,
aec3to - кодирование английской дорожки DTS в AC3,
Sony Vegas - синхронизация аудио,
DVD Architect - создание DVD.
Работоспособность проверена на софтовом плеере Windows Media, PowerDVD и бытовом BBK.
Записано программой ImgBurn на DVD5-R болванку.
Большое спасибо Serg1004 за предоставленный BDRemux.
Время раздачи: С 22:00 до 9:00 (время Московское) до 5 скачавших
Танцую за "СПАСИБО" Image Скачали фильм, напишите комментарий!
[NNM-Club.ru]_Tor.torrent
 Торрент: Золотая раздача  Зарегистрирован
 
Зарегистрируйтесь и скачайте торрент!
11,6 KB

 Зарегистрирован:   12 Сен 2011 00:15:00
 Размер:   4,36 GB  (
 Рейтинг:   4,5 (Голосов: 78)
 Поблагодарили:   273
 Проверка:   Оформление проверено модератором 12 Сен 2011 10:31:11
Как cкачать  ·  Как раздать  ·  Правильно оформить  ·  Поднять ратио!  
Loading...
y607ce
Стаж: 12 лет 1 мес.
Сообщений: 1720
Ratio: 1133,178
Раздал: 640,2 TB
Поблагодарили: 70444
100%
Откуда: Татарстан
ussr.gif
demasik
:клево: :респект:
За старания и труды Золото на время прибывания в разделе :подмигивание:
pazot
Стаж: 10 лет 1 мес.
Сообщений: 1174
Ratio: 239,74
Раздал: 11,39 TB
Поблагодарили: 1818
100%
pirates.png
спасибо , отличное качество
Krucha
Стаж: 10 лет 7 мес.
Сообщений: 3647
Ratio: 163,335
Поблагодарили: 252422
100%
Откуда: Запорожье
ussr.gif
y607ce писал(а): Перейти к сообщению
demasik
:клево: :респект:
За старания и труды Золото на время прибывания в разделе :подмигивание:


Поддерживаю!
demasik :приветствую:
Demasik ®
Стаж: 9 лет 2 мес.
Сообщений: 533
Ratio: 81,908
Поблагодарили: 34306
100%
russia.gif
y607ce, pazot, Krucha
Спасибо большое.
STAS-66
Стаж: 9 лет 3 мес.
Сообщений: 150
Ratio: 1,07
Раздал: 686 GB
100%
Откуда: Екатеринбург
russia.gif
Как фильм, стОит смотреть?
Отпишитесь... :крутой:
Alexandr-110567
Стаж: 9 лет 7 мес.
Сообщений: 224
Ratio: 219,744
100%
russia.gif
Если фильм находится в свободных раздачах, то почему он учитывается в графе ПОЛУЧЕНО?
Chief-9
Uploader 100+
Стаж: 9 лет 5 мес.
Сообщений: 546
Ratio: 1899,611
Раздал: 196,2 TB
Поблагодарили: 2150
100%
Alexandr-110567
Золото дали не сразу
Alexandr-110567
Стаж: 9 лет 7 мес.
Сообщений: 224
Ratio: 219,744
100%
russia.gif
Я когда начал качать, он находился в свободных раздачах и уже было золото.
Chief-9
Uploader 100+
Стаж: 9 лет 5 мес.
Сообщений: 546
Ratio: 1899,611
Раздал: 196,2 TB
Поблагодарили: 2150
100%
Alexandr-110567
Это во сколько было?
Alexandr-110567
Стаж: 9 лет 7 мес.
Сообщений: 224
Ratio: 219,744
100%
russia.gif
Примерно в 12ч20м-12ч25м по Москве. Я приехал домой в 12ч15м и включил комп, начал закачку. Если бы он не был в свободных раздачах, я не стал бы его качать.
Chief-9
Uploader 100+
Стаж: 9 лет 5 мес.
Сообщений: 546
Ratio: 1899,611
Раздал: 196,2 TB
Поблагодарили: 2150
100%
Alexandr-110567
Упс, тебе сюда:
http://nnmclub.to/forum/viewtopic.php?t=386950
k_kotsarev
Стаж: 10 лет 3 мес.
Сообщений: 235
Ratio: 34,447
100%
Откуда: г. Киев
ukraine.gif
спасибо
ATN76
Стаж: 10 лет 7 мес.
Сообщений: 18
Ratio: 5,549
0.1%
а звук то стерео!
morpheus_rus88
Стаж: 9 лет 3 мес.
Сообщений: 1
Ratio: 1,002
5.15%
russia.gif
язык английский воспроизводит, смотрю на пк, как сделать на русский не знаю :огорчение:
Показать сообщения:   
Начать новую тему   Ответить на тему    Торрент-трекер NNM-Club -> Архив торрентов -> Архив Видео Часовой пояс: GMT + 3
Страницы:  1, 2, 3  След.
Страница 1 из 3