Классический форум-трекер
canvas not supported
Нас вместе: 4 093 645

Дневники вампира / The Vаmрirе Diаriеs (Сезон 3 полный (22)) (2011) WEB-DLRip 352р (Кубик в Кубе)


Страницы:  1, 2  След. 
 
RSS
Начать новую тему   Ответить на тему    Торрент-трекер NNM-Club -> Архив торрентов -> Архив Сериалов, а также Архив Старого многосерийного кино до 90-х
Автор Сообщение
TollayaEkb ®
Стаж: 9 лет 10 мес.
Сообщений: 5745
Ratio: 2181,473
Раздал: 116,5 TB
Поблагодарили: 218652
100%
Откуда: Екб
russia.gif
Дневники вампира / The Vаmрirе Diаriеs
(Сезон 3, серии 01-22 из 22) (2011) WEB-DLRip 352р (Кубик в Кубе)


Русское название: Дневники вампира
Оригинальное название: The Vаmрirе Diаriе
Год выхода: 2011
Производство: США, CW
Жанр: Ужасы, фэнтези, драма
Сезон: 3
Серии: 01-22 из 22 серий
Продолжительность: ~ 42:00 мин серия



Перевод: Профессиональный двухголосый закадровый - Кубик в Кубе

Режиссер: Маркос Сига
В ролях: Нина Добрев, Пол Уэсли, Йен Сомерхалдер, Катерина Грэхэм, Стивен Р. МакКуин, Бенджамин Эйрс, Стив Белфорд, Сара Каннинг, Кайла Юэлл, Марси Т. Хаус и др.


Описание:
Стефан и Елена тут же чувствуют взаимную симпатию, но Елена даже не подозревает, что Стефан — вампир, которому уже сотни лет, и который старается мирно жить среди людей, несмотря на то, что его брат, Дэймон — воплощение вампирской жестокости и кровожадности. Теперь два брата-вампира — один добрый, другой злой — ведут борьбу за души Елены, ее друзей и других жителей городка Мистик Фоллз.
3 сезон приоткрывает завесу тайны на личность Клауса и семьи Древних и причины того, почему он хочет привлечь Стефана на свою сторону, наконец-то раскрываются. Пока Стефана всё больше захватывает тёмная сторона, Дэймон и Елена борются с чувством вины из-за крепнущих между ними уз, в то время как они совместно пытаются вытащить Стефана с края пропасти. Призраки прошлого Джереми пытаются донести до него очень важное сообщение, не говоря уж о том, какое влияние они оказывают на его отношения с Бонни. В то время как Кэролайн и Тайлер становятся ближе друг к другу, вспыхивает война между их семьями.


Качество: WEB-DLRip 352р
Видео: XviD, 624x352 (16:9), 23.976 fps, ~1200 kbps, ~0.230 bit/pixel
Аудио: МР3, 48 kHz, 2 ch, ~128 kbps (RU, EN)
| Сэмпл видео | Все раздачи|
Общее
\\\The.Vampire.Diaries.s03e01.WEB-DLRip.Kybik.v.Kybe.avi
Формат : AVI
Формат/Информация : Audio Video Interleave
Размер файла : 441 Мбайт
Продолжительность : 41 м.
Общий поток : 1470 Кбит/сек
Программа кодирования : VirtualDubMod 1.5.10.2 (build 2540/release)
Библиотека кодирования : VirtualDubMod build 2540/release
Видео
Идентификатор : 0
Формат : MPEG-4 Visual
Профиль формата : Advanced Simple@L5
Параметр BVOP формата : 1
Параметр QPel формата : Нет
Параметр GMC формата : Без точки перехода
Параметр матрицы формата : Выборочная
Идентификатор кодека : XVID
Идентификатор кодека/Подсказка : XviD
Продолжительность : 41 м.
Битрейт : 1200 Кбит/сек
Ширина : 624 пикс.
Высота : 352 пикс.
Соотношение сторон : 16:9
Частота кадров : 23,976 кадр/сек
Цветовое пространство : YUV
Подвыборка цветности : 4:2:0
Битовая глубина : 8 бит
Тип развёртки : Прогрессивная
Метод сжатия : С потерями
Бит/(Пиксели*Кадры) : 0.228
Размер потока : 360 Мбайт (82%)
Библиотека кодирования : XviD 1.2.1 (UTC 2008-12-04)
Аудио #1
Идентификатор : 1
Формат : MPEG Audio
Версия формата : Version 1
Профиль формата : Layer 3
Режим : Joint stereo
Расширение режима : MS Stereo
Идентификатор кодека : 55
Идентификатор кодека/Подсказка : MP3
Продолжительность : 41 м.
Вид битрейта : Постоянный
Битрейт : 128 Кбит/сек
Каналы : 2 канала
Частота : 48,0 КГц
Метод сжатия : С потерями
Размер потока : 38,4 Мбайт (9%)
Выравнивание : Соединение по промежуткам
Продолжительность промежутка : 42 мс. (1,00 видеокадр)
Время предзагрузки промежутка : 504 ms
Библиотека кодирования : LAME3.98r
Настройки программы : -m j -V 4 -q 2 -lowpass 17 -b 128
Аудио #2
Идентификатор : 2
Формат : MPEG Audio
Версия формата : Version 1
Профиль формата : Layer 3
Режим : Joint stereo
Расширение режима : MS Stereo
Идентификатор кодека : 55
Идентификатор кодека/Подсказка : MP3
Продолжительность : 41 м.
Вид битрейта : Постоянный
Битрейт : 128 Кбит/сек
Каналы : 2 канала
Частота : 48,0 КГц
Метод сжатия : С потерями
Размер потока : 38,4 Мбайт (9%)
Выравнивание : Соединение по промежуткам
Продолжительность промежутка : 42 мс. (1,00 видеокадр)
Время предзагрузки промежутка : 504 ms
Библиотека кодирования : LAME3.98r
Настройки программы : -m j -V 4 -q 2 -lowpass 17 -b 128

<<<Скриншоты>>>

Время раздачи: 24/7 - круглосуточно (до первых сидов - потом по возможности)
[NNM-Club.ru]_Vampire.Diaries.S03.WEB-DLRip 352r.Kybik.v.Kybe.torrent
 Торрент: Платиновая раздача  Зарегистрирован
 
Скачать


 Зарегистрирован:   13 Май 2012 18:24:58
 Размер:   9,45 GB  (
 Рейтинг:   4,5 (Голосов: 84)
 Поблагодарили:   235
 Проверка:   Оформление проверено модератором 13 Май 2012 20:23:53
Как cкачать  ·  Как раздать  ·  Правильно оформить  ·  Поднять ратио!  
sjmaster
Стаж: 9 лет 11 мес.
Сообщений: 129
Ratio: 3,214
Раздал: 7,073 TB
4.55%
Откуда: Омск
russia.gif
а когда будет список серий или когда будут выходить?)
TollayaEkb ®
Стаж: 9 лет 10 мес.
Сообщений: 5745
Ratio: 2181,473
Раздал: 116,5 TB
Поблагодарили: 218652
100%
Откуда: Екб
russia.gif
В оригинале выходит в пятницу, озвучка: в субботу - от кубиков, в воскресенье - от лоста
TollayaEkb ®
Стаж: 9 лет 10 мес.
Сообщений: 5745
Ratio: 2181,473
Раздал: 116,5 TB
Поблагодарили: 218652
100%
Откуда: Екб
russia.gif
Добавлена 2 серия. Перезалита первая серия. Перекачайте торрент
TollayaEkb ®
Стаж: 9 лет 10 мес.
Сообщений: 5745
Ratio: 2181,473
Раздал: 116,5 TB
Поблагодарили: 218652
100%
Откуда: Екб
russia.gif
Добавлена 3 серия. Перекачайте торрент
TollayaEkb ®
Стаж: 9 лет 10 мес.
Сообщений: 5745
Ratio: 2181,473
Раздал: 116,5 TB
Поблагодарили: 218652
100%
Откуда: Екб
russia.gif
Добавлена 4 серия. Перекачайте торрент
TollayaEkb ®
Стаж: 9 лет 10 мес.
Сообщений: 5745
Ratio: 2181,473
Раздал: 116,5 TB
Поблагодарили: 218652
100%
Откуда: Екб
russia.gif
Добавлена 5 серия. Перезалита четвертая. Перекачайте торрент
TollayaEkb ®
Стаж: 9 лет 10 мес.
Сообщений: 5745
Ratio: 2181,473
Раздал: 116,5 TB
Поблагодарили: 218652
100%
Откуда: Екб
russia.gif
Добавлена 6 серия. Перекачайте торрент
TollayaEkb ®
Стаж: 9 лет 10 мес.
Сообщений: 5745
Ratio: 2181,473
Раздал: 116,5 TB
Поблагодарили: 218652
100%
Откуда: Екб
russia.gif
Добавлены 7 и 8 серии. Перекачайте торрент
TollayaEkb ®
Стаж: 9 лет 10 мес.
Сообщений: 5745
Ratio: 2181,473
Раздал: 116,5 TB
Поблагодарили: 218652
100%
Откуда: Екб
russia.gif
Добавлена 9 серия. Перекачайте торрент
TollayaEkb ®
Стаж: 9 лет 10 мес.
Сообщений: 5745
Ratio: 2181,473
Раздал: 116,5 TB
Поблагодарили: 218652
100%
Откуда: Екб
russia.gif
Добавлены серии 10-12. Перекачайте торрент
yakushkina
Стаж: 8 лет 2 мес.
Сообщений: 2
Ratio: 28,756
0%
а где 13-я?
KRom
Стаж: 13 лет
Сообщений: 738
Ratio: 13,99
Поблагодарили: 4140
100%
Откуда: Извр
Ориентировочно 3-4 должна быть

_________________
wladimir1973
Стаж: 10 лет 4 мес.
Сообщений: 29
Ratio: 0,722
Поблагодарили: 1
100%
Откуда: Рязань
russia.gif
Здрасти...а хде новые серии?Спс...
TollayaEkb ®
Стаж: 9 лет 10 мес.
Сообщений: 5745
Ratio: 2181,473
Раздал: 116,5 TB
Поблагодарили: 218652
100%
Откуда: Екб
russia.gif
Добавлены 13 и 14 серии. Перекачайте торрент
Показать сообщения:   
Начать новую тему   Ответить на тему    Торрент-трекер NNM-Club -> Архив торрентов -> Архив Сериалов, а также Архив Старого многосерийного кино до 90-х Часовой пояс: GMT + 3
Страницы:  1, 2  След.
Страница 1 из 2