Классический форум-трекер
canvas not supported
Нас вместе: 4 077 956

Медвежонок Винни и его друзья / Winnie the Pooh (2011) DVDRip


 
 
RSS
Начать новую тему   Ответить на тему    Торрент-трекер NNM-Club -> Мультфильмы -> Зарубежные Мультфильмы для детей
Автор Сообщение
_MysTeRy_ ®
Блондинка в шоколаде
Стаж: 8 лет 7 мес.
Сообщений: 1728
Ratio: 174,821
Раздал: 34,14 TB
Поблагодарили: 223696
100%
logo.gif
Медвежонок Винни и его друзья / Winnie the Pooh (2011) DVDRip
«Новый горшочек меда для старых друзей»

Русское название: Медвежонок Винни и его друзья
Оригинальное название: Winnie the Pooh
Год выпуска: 2011
Производство: США, Walt Disney Pictures
Жанр: Мультфильм, семейный

Перевод: Дублированный
Субтитры: Отсутствуют


Дата мировой премьеры: 6 апреля 2011
Дата российской премьеры: 25 августа 2011, «WDSSPR»
Дата выхода DVD/Blu-Ray релиза: 18 октября 2011, «Уолт Дисней Компани СНГ»

Режиссер: Стивен Дж. Андерсон, Дон Холл
Актеры: Джим Каммингс, Крэйг Фергюсон, Джон Клиз, Том Кенни, Бад Лакки, Трэвис Оутс, Джек Болтер, Кристен Андерсон-Лопес

Описание фильма:
Когда Ослик Ушастик теряет свой хвост, Филин отправляет друзей (Винни, Тигрулю, Кролика, Хрюню, Кенгу и Крошку Ру) помочь бедолаге найти пропажу, а заодно — спасти Кристофера Робина от таинственного Яскорра. А ведь медвежонок Винни, собирался всего лишь отыскать где-нибудь немного мёда, чтобы слегка подкрепиться, и даже не предполагал, что его ждёт такой суматошный день!

Продолжительность: 01:03:03
Качество видео: DVDRip
Сэмпл: Скачать

Видеокодек: Xvid
Битрейт видео: ~2847 Кбит/сек
Размер кадра: 720x400
Аудиокодек: AC3 2.0
Битрейт аудио: 256 Кбит/сек

Формат : AVI
Формат/Информация : Audio Video Interleave
Размер файла : 1,37 Гбайт
Продолжительность : 1 ч. 3 м.
Общий поток : 3113 Кбит/сек
Программа кодирования : VirtualDubMod 1.5.10.2 (build 2542/release)
Библиотека кодирования : VirtualDubMod build 2542/release

Видео
Идентификатор : 0
Формат : MPEG-4 Visual
Профиль формата : Simple@L3
Параметр BVOP формата : Нет
Параметр QPel формата : Нет
Параметр GMC формата : Без точки перехода
Параметр матрицы формата : Default (H.263)
Идентификатор кодека : XVID
Идентификатор кодека/Подсказка : XviD
Продолжительность : 1 ч. 3 м.
Битрейт : 2847 Кбит/сек
Ширина : 720 пикселей
Высота : 400 пикселей
Соотношение сторон : 16:9
Частота кадров : 23,976 кадра/сек
Цветовое пространство : YUV
Субдискретизация насыщенности : 4:2:0
Битовая глубина : 8 бит
Тип развёртки : Прогрессивная
Метод сжатия : С потерями
Бит/(Пиксели*Кадры) : 0.412
Размер потока : 1,25 Гбайт (91%)
Библиотека кодирования : XviD 64

Аудио
Идентификатор : 1
Формат : AC-3
Формат/Информация : Audio Coding 3
Расширение режима : CM (complete main)
Идентификатор кодека : 2000
Продолжительность : 1 ч. 3 м.
Вид битрейта : Постоянный
Битрейт : 256 Кбит/сек
Каналы : 2 канала
Расположение каналов : Front: L R
Частота : 48,0 КГц
Битовая глубина : 16 бит
Метод сжатия : С потерями
Размер потока : 115 Мбайт (8%)
Выравнивание : Разделение по промежуткам
Продолжительность промежутка : 42 мс. (1,00 видеокадр)
Время предзагрузки промежутка : 500 мс.

Скриншоты:




Время раздачи: 09.00-23.00 до 5 скачавших
[NNM-Club.ru]_Winnie.the.Pooh.2011.D.DVDRip.1400MB.avi.torrent
 Торрент: Золотая раздача  Зарегистрирован
 
Зарегистрируйтесь и скачайте торрент!
14,1 KB

Примагнититься
 Зарегистрирован:   04 Окт 2011 17:55:02
 Размер:   1,37 GB  (
 Рейтинг:   4,7 (Голосов: 66)
 Поблагодарили:   331
 Проверка:   Оформление проверено модератором 04 Окт 2011 18:36:15
Как cкачать  ·  Как раздать  ·  Правильно оформить  ·  Поднять ратио!  
gofra
Стаж: 10 лет 5 мес.
Сообщений: 110
Ratio: 8,188
Поблагодарили: 261
7.05%
russia.gif
Забераю Ж))
Pakhar
Стаж: 9 лет 1 мес.
Сообщений: 22
Ratio: 40,782
100%
russia.gif
"Тигрюню" и "Хрюню"
pimimot
Стаж: 9 лет 8 мес.
Сообщений: 348
Ratio: 2,568
100%
Откуда: ottuda
afghanistan.gif
А НАД ПОРОСЁНКОМ-ДЕМОН...ИЛИ СУРА ВТОРАЯ-КОРОВА. КАТАЮСЬ ПАД СТОЛОМ.
Strelok@46
Стаж: 8 лет 2 мес.
Сообщений: 451
Ratio: 135,85
Раздал: 6,709 TB
Поблагодарили: 34674
100%
Откуда: Курская обл.
russia.gif
pimimot писал(а): Перейти к сообщению
А НАД ПОРОСЁНКОМ-ДЕМОН...ИЛИ СУРА ВТОРАЯ-КОРОВА. КАТАЮСЬ ПАД СТОЛОМ.

Вы нарушили правило
Цитата:
Запрещается!
2.14. Злоупотреблять использованием СПЛОШНЫХ ЗАГЛАВНЫХ букв (использованием Caps Lock).

Советую исправить сообщение, пока модераторы не увидели :подмигивание:

ПаZиtиFFк@
Спасибо :респект: посмотрим-с :цветок: :смущение:
_MysTeRy_ ®
Блондинка в шоколаде
Стаж: 8 лет 7 мес.
Сообщений: 1728
Ratio: 174,821
Раздал: 34,14 TB
Поблагодарили: 223696
100%
logo.gif
Strelok@46 писал(а):
Спасибо

Пожалуйста,приятного просмотра :подмигивание:
Варяг
RG Releasers
 
Стаж: 9 лет 5 мес.
Сообщений: 4999
Ratio: 3263,559
Поблагодарили: 690282
100%
ПаZиtиFFк@
Супер :цветок:

_________________
Только противоречия приводят к выбору
siiimple
Стаж: 8 лет
Сообщений: 11
Ratio: 2,535
100%
Тиграаа супер!!! :поклоняется:
miiilka
Стаж: 8 лет 9 мес.
Сообщений: 54
Ratio: 0,87
Раздал: 444 GB
55.12%
Откуда: Minsk
belarus.gif
с удовольствием посмотрю))) спасибо)))
svetan
Стаж: 10 лет
Сообщений: 79
Ratio: 15,915
100%
russia.gif
Спасибо большое-пребольшое!!!
Morado
Стаж: 9 лет 2 мес.
Сообщений: 3
Ratio: 11,757
100%
Смотреть только под выпивку, иначе месадж не зайдет.
FlejFlej
Стаж: 9 лет 3 мес.
Сообщений: 2
Ratio: 2,493
50%
ukraine.gif
Ка аю)
LMAOSAN
Стаж: 10 лет 11 мес.
Сообщений: 76
Ratio: 27,206
5.04%
А есть-ли где адекватный перевод, где ослика зовут "Иа", а не "Ушастиком"?
Показать сообщения:   
Начать новую тему   Ответить на тему    Торрент-трекер NNM-Club -> Мультфильмы -> Зарубежные Мультфильмы для детей Часовой пояс: GMT + 3
Страница 1 из 1