Классический форум-трекер
canvas not supported
Нас вместе: 4 095 220

Самолечение: остаться в живых. Правила жизни (полностью на русском языке) (2010) TVRip


 
 
RSS
Начать новую тему   Ответить на тему    Торрент-трекер NNM-Club -> Архив торрентов -> Архив Документалистики и TV
Автор Сообщение
sas275 ®
Стаж: 12 лет 6 мес.
Сообщений: 269
Ratio: 15,173
Поблагодарили: 1402
100%
russia.gif
Самолечение: остаться в живых. Правила жизни (полностью на русском языке) (2010) TVRip
Русское название: Самолечение: остаться в живых. Правила жизни (полностью на русском языке)
Режиссер / Телекомпания: Волга
Год выпуска: 2010
Жанр: Документальный

Описание:
Закололо в боку, заболел живот, температура... -зачем звать врача, ведь мы сами знаем как избавиться от всех известных болезней. Но методы которые вы считали целительными, могут довести больного до могилы.
После посещения костоправа, пациентка чуть не потеряла руку... из за жаропонижающей таблетки, ребёнок потерял 98% кожи... Пользуясь поясом здоровья, человек получил болевой шок... После массажа, девушка чуть не умерла от рака лимфатической системы... Некоторые народные способы лечения шокируют даже самих медиков... Вместе с лучшими докторами, мы определили семёрку самых опасных и шокирующих средств самолечения. Приготовьтесь записать, чего нельзя делать ни в коим случае, чтобы не попасть на тот свет.

Продолжительность: 00:44:05

Перевод: Многоголосый закадровый, профессиональный

Видеокодек: Xvid
Битрейт видео: ~1199 кб/с
Размер кадра: 352х288
Качество видео: TVRip
Аудиокодек: MP3
Битрейт аудио: 224 кб/с
Общее
Полное имя : E:\Downloads torrent\Самолечение. Остаться в живых. Правила жизни. (полностью на русском языке).avi
Формат : AVI
Формат/Информация : Audio Video Interleave
Размер файла : 450 Мбайт
Продолжительность : 44 м.
Общий поток : 1429 Кбит/сек
Программа кодирования : MEncoder SVN-r29352(20090610-gcc4.3.3)
Библиотека кодирования : MPlayer

Видео
Идентификатор : 0
Формат : MPEG-4 Visual
Профиль формата : Advanced Simple@L5
Параметр BVOP формата : 2
Параметр QPel формата : Нет
Параметр GMC формата : Без точки перехода
Параметр матрицы формата : Default (H.263)
Идентификатор кодека : XVID
Идентификатор кодека/Подсказка : XviD
Продолжительность : 44 м.
Битрейт : 1199 Кбит/сек
Ширина : 352 пикселя
Высота : 288 пикселей
Соотношение сторон : 4:3
Частота кадров : 25,000 кадров/сек
Стандарт вещания : PAL
Цветовое пространство : YUV
Субдискретизация насыщенности : 4:2:0
Битовая глубина : 8 бит
Тип развёртки : Прогрессивная
Метод сжатия : С потерями
Бит/(Пиксели*Кадры) : 0.473
Размер потока : 378 Мбайт (84%)
Библиотека кодирования : XviD 1.2.1 (UTC 2008-12-04)

Аудио
Идентификатор : 1
Формат : MPEG Audio
Версия формата : Version 1
Профиль формата : Layer 2
Идентификатор кодека : 50
Продолжительность : 44 м.
Вид битрейта : Постоянный
Битрейт : 224 Кбит/сек
Каналы : 2 канала
Частота : 32,0 КГц
Метод сжатия : С потерями
Задержка видео : 40 мс.
Размер потока : 70,6 Мбайт (16%)
Выравнивание : Разделение по промежуткам
Продолжительность промежутка : 500 мс. (12,50 видеокадров)
Время предзагрузки промежутка : 500 мс.
Скриншоты:


Все мои релизы

Время раздачи: 24/7 до первых 10 скачавших.
[NNM-Club.ru]_Samolechenie. Ostat'sya v zhivyih. Pravila zhizni. (polnost'yu na russkom yazyike).avi.torrent
 Торрент: Золотая раздача  Зарегистрирован
 
Зарегистрируйтесь и скачайте торрент!
17,9 KB

Примагнититься
 Зарегистрирован:   04 Окт 2011 21:04:49
 Размер:   450 MB  (
 Рейтинг:   4,8 (Голосов: 18)
 Поблагодарили:   79
 Проверка:   Оформление проверено модератором 05 Окт 2011 21:08:39
Как cкачать  ·  Как раздать  ·  Правильно оформить  ·  Поднять ратио!  
Топик был перенесен из форума Тележурналистика в форум Архив Документалистики и TV

Причина переноса: Отсутствие сидов более 3 месяцев.

Исправил релиз - напиши ЛС ALLic, дав ссылку на релиз.
Если нет ответа 24 часа - нажми на кнопку "Обратить внимание модераторов".
Показать сообщения:   
Начать новую тему   Ответить на тему    Торрент-трекер NNM-Club -> Архив торрентов -> Архив Документалистики и TV Часовой пояс: GMT + 3
Страница 1 из 1