Классический форум-трекер
canvas not supported
Нас вместе: 4 078 972

Приехали на конкурс повара (1977) [H.264] DVDRip


 
 
RSS
Начать новую тему   Ответить на тему    Торрент-трекер NNM-Club -> Классика кино и Старые фильмы до 90-х -> Отечественная Классика (HD*Rip/LQ, DVDRip, SATRip, VHSRip)
Автор Сообщение
ab5144 ®
Стаж: 8 лет 6 мес.
Сообщений: 2693
Ratio: 101,287
Поблагодарили: 263916
100%
Приехали на конкурс повара (1977) [H.264] DVDRip
Страна: СССР
Студия-производитель: «Арменфильм»
Жанр: Комедия

Описание:
В Москву на конкурс мастеров кулинарного искусства приезжают три замечательных повара из Еревана. Несмотря на все их усилия и мастерство призовое место от армян уплывает. Виной тому - целый ряд веселых и забавных недоразумений…

Режиссер: Нерсес Оганесян
Актеры: Армен Джигарханян, Ерванд Манарян, Степан Арутюнян, Евгения Симонова, Борис Щербаков, Ирина Мурзаева, Владимир Басов, Ара Бабаджанян, Евгений Перов, Наталья Гицерот

Продолжительность: 01:10:07



Видео: 640x480 (1.33:1), 25 fps, XviD build 50, 1280 kbps avg, 0.17 bit/pixel
Аудио: Русский: 48 kHz, MPEG Layer 3, 2 ch, 101.59 kbps avg
Общее
Полное имя : Y:\Приехали на конкурс повора.avi
Формат : AVI
Формат/Информация : Audio Video Interleave
Размер файла : 700 Мбайт
Продолжительность : 1 ч. 10 м.
Режим общего битрейта : Переменный
Общий поток : 1396 Кбит/сек
Программа кодирования : VirtualDubMod 1.5.4.1 (build 2178/release)
Библиотека кодирования : VirtualDubMod build 2178/release

Видео
Идентификатор : 0
Формат : MPEG-4 Visual
Профиль формата : Advanced Simple@L5
Параметр BVOP формата : 1
Параметр QPel формата : Нет
Параметр GMC формата : Без точки перехода
Параметр матрицы формата : Выборочная
Идентификатор кодека : XVID
Идентификатор кодека/Подсказка : XviD
Продолжительность : 1 ч. 10 м.
Битрейт : 1281 Кбит/сек
Ширина : 640 пикселей
Высота : 480 пикселей
Соотношение сторон : 4:3
Частота кадров : 25,000 кадров/сек
Цветовое пространство : YUV
Субдискретизация насыщенности : 4:2:0
Битовая глубина : 8 бит
Тип развёртки : Прогрессивная
Метод сжатия : С потерями
Бит/(Пиксели*Кадры) : 0.167
Размер потока : 643 Мбайт (92%)
Библиотека кодирования : XviD 1.2.1 (UTC 2008-12-04)

Аудио
Идентификатор : 1
Формат : MPEG Audio
Версия формата : Version 1
Профиль формата : Layer 3
Режим : Joint stereo
Расширение режима : MS Stereo
Идентификатор кодека : 55
Идентификатор кодека/Подсказка : MP3
Продолжительность : 1 ч. 10 м.
Вид битрейта : Переменный
Битрейт : 102 Кбит/сек
Номинальный битрейт : 128 Кбит/сек
Каналы : 2 канала
Частота : 48,0 КГц
Метод сжатия : С потерями
Задержка видео : 288 мс.
Размер потока : 51,0 Мбайт (7%)
Выравнивание : Разделение по промежуткам
Продолжительность промежутка : 24 мс. (0,60 видеокадр)
Время предзагрузки промежутка : 1179 мс.
Библиотека кодирования : LAME3.98r
Настройки программы : -m j -V 4 -q 2 -lowpass 17 --abr 128
Язык : Russian
Скриншоты:


Время раздачи: 24/7 до 5 скачавших
[NNM-Club.name]_Priehali na konkurs povara (Nerses Oganesyan) [1977, Komediya, DVDRip].torrent
 Торрент: Платиновая раздача  Зарегистрирован
 
Скачать


Примагнититься
 Зарегистрирован:   16 Окт 2017 11:39:00
 Размер:   700 MB  (
 Рейтинг:   4,7 (Голосов: 74)
 Поблагодарили:   289
 Проверка:   Оформление проверено модератором 16 Окт 2017 11:41:53
Как cкачать  ·  Как раздать  ·  Правильно оформить  ·  Поднять ратио!  
Загрузка...
Gurkin56
Стаж: 9 лет 4 мес.
Сообщений: 2648
Ratio: 0,913
Поблагодарили: 182435
100%
Откуда: Wonderland
Актёры - огонь! качаю. Спасибо.
jxtymctrhtnyj
Стаж: 9 лет
Сообщений: 13
Ratio: 10,435
100%
russia.gif
СПАСИБО!!! ПОСМОТРЮ.
garik2010
Стаж: 9 лет 3 мес.
Сообщений: 19
Ratio: 2056,984
100%
ukraine.gif
Ты просто молодец!Качаю!Большое спасибо. :супер!:
edik60606
Стаж: 9 лет
Сообщений: 799
Ratio: 3,85
100%
Откуда: эстония
estonia.gif
Сто лет не видел эту картину!
zivXP
Стаж: 5 лет 2 мес.
Сообщений: 130
Ratio: 4,401
53.3%
north_korea.gif
С удовольствием пересмотрю еще не один раз
datchanin.ru

Online
Стаж: 9 лет 1 мес.
Сообщений: 700
Ratio: 83,024
100%
Любимый фильм из детства!
Показать сообщения:   
Начать новую тему   Ответить на тему    Торрент-трекер NNM-Club -> Классика кино и Старые фильмы до 90-х -> Отечественная Классика (HD*Rip/LQ, DVDRip, SATRip, VHSRip) Часовой пояс: GMT + 3
Страница 1 из 1