Классический форум-трекер
canvas not supported
Нас вместе: 4 079 186

Кругосветное путешествие вместе с Хрюшей и...(Серии 1-47) (2011) TVRip [Обновляемая]


Страницы:   Пред.  1, 2 
 
RSS
Начать новую тему   Ответить на тему    Торрент-трекер NNM-Club -> Видео -> Развивающее Видео для детей
Автор Сообщение
эксклюзив ®
Стаж: 8 лет 7 мес.
Сообщений: 1169
Ratio: 159,795
Поблагодарили: 75094
100%
Кругосветное путешествие вместе с Хрюшей и...(Серии 1-47) (2011) TVRip
Русское название: Кругосветное путешествие вместе с Хрюшей и...
Год выпуска: 2011
Выпущено: Компания "КЛАСС!"
Жанр: Обучающее видео для детей
Режиссер: Елена Лезина
Ведущие: Юлия Иванова, Александр Беляев

Релиз группа:

Описание фильма:
Необыкновенные приключения ждут Хрюшу и других героев передачи «Спокойной ночи, малыши!» во время большого кругосветного путешествия!

Продолжительность: 47x ~ 00:10:00
Качество видео: TVRip
Видеокодек: Xvid
Битрейт видео: ~1800 kb/s
Размер кадра: 704x528
Аудиокодек: MP3,2 ch
Битрейт аудио: 128 kb/s

Внимание! Раздача ведётся путём добавления новых выпусков; при каждом добавлении создаётся новый торрент.

Чтобы начать докачку нового выпуска, пользователям необходимо сделать следующее:
(1) остановить скачивание,
(2) удалить старый торрент у себя из клиента (старые серии удалять не надо),
(3) скачать новый торрент и запустить его у себя в клиенте вместо старого, при этом указать клиенту путь в старую папку куда и должно происходить скачивание новых выпусков.

Ваш клиент при этом должен произвести хеширование (проверку) старой папки. В результате он будет докачивать только те выпуски, которых у Вас ещё нет. Старые выпуски при этом не удаляются, а продолжают раздаваться!

Eсли Вы уже удалили старые выпуски, то предотвратить их повторную закачку можно, сняв галочки в соответствующих местах при запуске нового торрента.


Серия 1:Тихий океан

Продолжительность: 00:09:53
Качество видео: TVRip
Видеокодек: Xvid
Битрейт видео: ~1834 kb/s
Размер кадра: 704x528
Аудиокодек: MP3,2 ch
Битрейт аудио: 128 kb/s
Общее
Полное имя : D:\Фильм\Кругосветное путешествие вместе с Хрюшей и...(1.serija).2011.XviD.TVRip..avi
Формат : AVI
Формат/Информация : Audio Video Interleave
Размер файла : 139 Мбайт
Продолжительность : 9 м. 53 с.
Общий поток : 1972 Кбит/сек
Программа кодирования : VirtualDubMod 1.5.10.2 (build 2540/release)
Библиотека кодирования : VirtualDubMod build 2540/release

Видео
Идентификатор : 0
Формат : MPEG-4 Visual
Профиль формата : Advanced Simple@L5
Параметр BVOP формата : 2
Параметр QPel формата : Нет
Параметр GMC формата : Без точки перехода
Параметр матрицы формата : Default (H.263)
Режим смешивания : Сжатый битовый поток
Идентификатор кодека : XVID
Идентификатор кодека/Подсказка : XviD
Продолжительность : 9 м. 53 с.
Битрейт : 1834 Кбит/сек
Ширина : 704 пикс.
Высота : 528 пикс.
Соотношение сторон : 4:3
Частота кадров : 25,000 кадр/сек
Цветовое пространство : YUV
Подвыборка цветности : 4:2:0
Битовая глубина : 8 бит
Тип развёртки : Прогрессивная
Метод сжатия : С потерями
Бит/(Пиксели*Кадры) : 0.197
Размер потока : 130 Мбайт (93%)
Библиотека кодирования : XviD 1.2.1 (UTC 2008-12-04)

Аудио
Идентификатор : 1
Формат : MPEG Audio
Версия формата : Version 1
Профиль формата : Layer 3
Режим : Joint stereo
Расширение режима : MS Stereo
Идентификатор кодека : 55
Идентификатор кодека/Подсказка : MP3
Продолжительность : 9 м. 53 с.
Вид битрейта : Постоянный
Битрейт : 128 Кбит/сек
Канал(ы) : 2 канала(ов)
Частота : 48,0 КГц
Метод сжатия : С потерями
Задержка видео : 288 мс.
Размер потока : 9,05 Мбайт (6%)
Выравнивание : Соединение по промежуткам
Продолжительность промежутка : 40 мс. (1,00 видеокадр)
Время предзагрузки промежутка : 504 ms
Скриншоты:



Серия 2: Атлантический океан

Продолжительность: 00:10:09
Качество видео: TVRip
Видеокодек: Xvid
Битрейт видео: ~1778 kb/s
Размер кадра: 704x528
Аудиокодек: MP3, 2 ch
Битрейт аудио: 128 kb/s
Общее
Полное имя : D:\Фильм\Кругосветное путешествие вместе с Хрюшей и...(2.serija).2011.XviD.TVRip..avi
Формат : AVI
Формат/Информация : Audio Video Interleave
Размер файла : 139 Мбайт
Продолжительность : 10 м.
Общий поток : 1916 Кбит/сек
Программа кодирования : VirtualDubMod 1.5.10.2 (build 2540/release)
Библиотека кодирования : VirtualDubMod build 2540/release

Видео
Идентификатор : 0
Формат : MPEG-4 Visual
Профиль формата : Advanced Simple@L5
Параметр BVOP формата : 2
Параметр QPel формата : Нет
Параметр GMC формата : Без точки перехода
Параметр матрицы формата : Default (H.263)
Режим смешивания : Сжатый битовый поток
Идентификатор кодека : XVID
Идентификатор кодека/Подсказка : XviD
Продолжительность : 10 м.
Битрейт : 1778 Кбит/сек
Ширина : 704 пикс.
Высота : 528 пикс.
Соотношение сторон : 4:3
Частота кадров : 25,000 кадр/сек
Цветовое пространство : YUV
Подвыборка цветности : 4:2:0
Битовая глубина : 8 бит
Тип развёртки : Прогрессивная
Метод сжатия : С потерями
Бит/(Пиксели*Кадры) : 0.191
Размер потока : 129 Мбайт (93%)
Библиотека кодирования : XviD 1.2.1 (UTC 2008-12-04)

Аудио
Идентификатор : 1
Формат : MPEG Audio
Версия формата : Version 1
Профиль формата : Layer 3
Режим : Joint stereo
Расширение режима : MS Stereo
Идентификатор кодека : 55
Идентификатор кодека/Подсказка : MP3
Продолжительность : 10 м.
Вид битрейта : Постоянный
Битрейт : 128 Кбит/сек
Канал(ы) : 2 канала(ов)
Частота : 48,0 КГц
Метод сжатия : С потерями
Задержка видео : 288 мс.
Размер потока : 9,30 Мбайт (7%)
Выравнивание : Соединение по промежуткам
Продолжительность промежутка : 40 мс. (1,00 видеокадр)
Время предзагрузки промежутка : 504 ms
Скриншоты:



Серия 3: Земная кора

Продолжительность: 00:09:57
Качество видео: TVRip
Видеокодек: Xvid
Битрейт видео: ~1818 kb/s
Размер кадра: 704x528
Аудиокодек: MP3, 2 ch
Битрейт аудио: 128 kb/s
Общее
Полное имя : D:\Фильм\Кругосветное путешествие вместе с Хрюшей и...(3.serija).2011.XviD.TVRip..avi
Формат : AVI
Формат/Информация : Audio Video Interleave
Размер файла : 139 Мбайт
Продолжительность : 9 м. 57 с.
Общий поток : 1956 Кбит/сек
Программа кодирования : VirtualDubMod 1.5.10.2 (build 2540/release)
Библиотека кодирования : VirtualDubMod build 2540/release

Видео
Идентификатор : 0
Формат : MPEG-4 Visual
Профиль формата : Advanced Simple@L5
Параметр BVOP формата : 2
Параметр QPel формата : Нет
Параметр GMC формата : Без точки перехода
Параметр матрицы формата : Default (H.263)
Режим смешивания : Сжатый битовый поток
Идентификатор кодека : XVID
Идентификатор кодека/Подсказка : XviD
Продолжительность : 9 м. 57 с.
Битрейт : 1818 Кбит/сек
Ширина : 704 пикс.
Высота : 528 пикс.
Соотношение сторон : 4:3
Частота кадров : 25,000 кадр/сек
Цветовое пространство : YUV
Подвыборка цветности : 4:2:0
Битовая глубина : 8 бит
Тип развёртки : Прогрессивная
Метод сжатия : С потерями
Бит/(Пиксели*Кадры) : 0.196
Размер потока : 130 Мбайт (93%)
Библиотека кодирования : XviD 1.2.1 (UTC 2008-12-04)

Аудио
Идентификатор : 1
Формат : MPEG Audio
Версия формата : Version 1
Профиль формата : Layer 3
Режим : Joint stereo
Расширение режима : MS Stereo
Идентификатор кодека : 55
Идентификатор кодека/Подсказка : MP3
Продолжительность : 9 м. 57 с.
Вид битрейта : Постоянный
Битрейт : 128 Кбит/сек
Канал(ы) : 2 канала(ов)
Частота : 48,0 КГц
Метод сжатия : С потерями
Задержка видео : 288 мс.
Размер потока : 9,12 Мбайт (7%)
Выравнивание : Соединение по промежуткам
Продолжительность промежутка : 40 мс. (1,00 видеокадр)
Время предзагрузки промежутка : 504 ms
Скриншоты:


Серия 4: Горы

Продолжительность: 00:10:11
Качество видео: TVRip
Видеокодек: Xvid
Битрейт видео: ~1776 kb/s
Размер кадра: 704x528
Аудиокодек: MP3, 2 ch
Битрейт аудио: 128 kb/s
Общее
Полное имя : D:\Фильм\Кругосветное путешествие вместе с Хрюшей и...(4.serija).2011.XviD.TVRip.avi
Формат : AVI
Формат/Информация : Audio Video Interleave
Размер файла : 139 Мбайт
Продолжительность : 10 м.
Общий поток : 1914 Кбит/сек
Программа кодирования : VirtualDubMod 1.5.10.2 (build 2540/release)
Библиотека кодирования : VirtualDubMod build 2540/release

Видео
Идентификатор : 0
Формат : MPEG-4 Visual
Профиль формата : Advanced Simple@L5
Параметр BVOP формата : 2
Параметр QPel формата : Нет
Параметр GMC формата : Без точки перехода
Параметр матрицы формата : Default (H.263)
Режим смешивания : Сжатый битовый поток
Идентификатор кодека : XVID
Идентификатор кодека/Подсказка : XviD
Продолжительность : 10 м.
Битрейт : 1776 Кбит/сек
Ширина : 704 пикс.
Высота : 528 пикс.
Соотношение сторон : 4:3
Частота кадров : 25,000 кадр/сек
Цветовое пространство : YUV
Подвыборка цветности : 4:2:0
Битовая глубина : 8 бит
Тип развёртки : Прогрессивная
Метод сжатия : С потерями
Бит/(Пиксели*Кадры) : 0.191
Размер потока : 129 Мбайт (93%)
Библиотека кодирования : XviD 1.2.1 (UTC 2008-12-04)

Аудио
Идентификатор : 1
Формат : MPEG Audio
Версия формата : Version 1
Профиль формата : Layer 3
Режим : Joint stereo
Расширение режима : MS Stereo
Идентификатор кодека : 55
Идентификатор кодека/Подсказка : MP3
Продолжительность : 10 м.
Вид битрейта : Постоянный
Битрейт : 128 Кбит/сек
Канал(ы) : 2 канала(ов)
Частота : 48,0 КГц
Метод сжатия : С потерями
Задержка видео : 288 мс.
Размер потока : 9,33 Мбайт (7%)
Выравнивание : Соединение по промежуткам
Продолжительность промежутка : 40 мс. (1,00 видеокадр)
Время предзагрузки промежутка : 504 ms
Скриншоты:



Серия 5: Стороны света - Север, Юг, Запад, Восток

Продолжительность: 00:10:05
Качество видео: TVRip
Видеокодек: Xvid
Битрейт видео: ~1799 kb/s
Размер кадра: 704x528
Аудиокодек: MP3, 2 ch
Битрейт аудио: 128 kb/s
Общее
Полное имя : D:\Фильм\Кругосветное путешествие вместе с Хрюшей и...(5.serija).2011.XviD.TVRip.avi
Формат : AVI
Формат/Информация : Audio Video Interleave
Размер файла : 140 Мбайт
Продолжительность : 10 м.
Общий поток : 1936 Кбит/сек
Программа кодирования : VirtualDubMod 1.5.10.2 (build 2540/release)
Библиотека кодирования : VirtualDubMod build 2540/release

Видео
Идентификатор : 0
Формат : MPEG-4 Visual
Профиль формата : Advanced Simple@L5
Параметр BVOP формата : 2
Параметр QPel формата : Нет
Параметр GMC формата : Без точки перехода
Параметр матрицы формата : Default (H.263)
Режим смешивания : Сжатый битовый поток
Идентификатор кодека : XVID
Идентификатор кодека/Подсказка : XviD
Продолжительность : 10 м.
Битрейт : 1799 Кбит/сек
Ширина : 704 пикс.
Высота : 528 пикс.
Соотношение сторон : 4:3
Частота кадров : 25,000 кадр/сек
Цветовое пространство : YUV
Подвыборка цветности : 4:2:0
Битовая глубина : 8 бит
Тип развёртки : Прогрессивная
Метод сжатия : С потерями
Бит/(Пиксели*Кадры) : 0.194
Размер потока : 130 Мбайт (93%)
Библиотека кодирования : XviD 1.2.1 (UTC 2008-12-04)

Аудио
Идентификатор : 1
Формат : MPEG Audio
Версия формата : Version 1
Профиль формата : Layer 3
Режим : Joint stereo
Расширение режима : MS Stereo
Идентификатор кодека : 55
Идентификатор кодека/Подсказка : MP3
Продолжительность : 10 м.
Вид битрейта : Постоянный
Битрейт : 128 Кбит/сек
Канал(ы) : 2 канала(ов)
Частота : 48,0 КГц
Метод сжатия : С потерями
Задержка видео : 288 мс.
Размер потока : 9,24 Мбайт (7%)
Выравнивание : Соединение по промежуткам
Продолжительность промежутка : 40 мс. (1,00 видеокадр)
Время предзагрузки промежутка : 504 ms
Скриншоты:



Серия 6: Полезные ископаемые

Продолжительность: 00:10:00
Качество видео: TVRip
Видеокодек: Xvid
Битрейт видео: ~1808 kb/s
Размер кадра: 704x528
Аудиокодек: MP3, 2 ch
Битрейт аудио: 128 kb/s
Общее
Полное имя : D:\Фильм\Кругосветное путешествие вместе с Хрюшей и...(6.serija).2011.XviD.TVRip.avi
Формат : AVI
Формат/Информация : Audio Video Interleave
Размер файла : 139 Мбайт
Продолжительность : 10 м.
Общий поток : 1946 Кбит/сек
Программа кодирования : VirtualDubMod 1.5.10.2 (build 2540/release)
Библиотека кодирования : VirtualDubMod build 2540/release

Видео
Идентификатор : 0
Формат : MPEG-4 Visual
Профиль формата : Advanced Simple@L5
Параметр BVOP формата : 2
Параметр QPel формата : Нет
Параметр GMC формата : Без точки перехода
Параметр матрицы формата : Default (H.263)
Режим смешивания : Сжатый битовый поток
Идентификатор кодека : XVID
Идентификатор кодека/Подсказка : XviD
Продолжительность : 10 м.
Битрейт : 1808 Кбит/сек
Ширина : 704 пикс.
Высота : 528 пикс.
Соотношение сторон : 4:3
Частота кадров : 25,000 кадр/сек
Цветовое пространство : YUV
Подвыборка цветности : 4:2:0
Битовая глубина : 8 бит
Тип развёртки : Прогрессивная
Метод сжатия : С потерями
Бит/(Пиксели*Кадры) : 0.195
Размер потока : 129 Мбайт (93%)
Библиотека кодирования : XviD 1.2.1 (UTC 2008-12-04)

Аудио
Идентификатор : 1
Формат : MPEG Audio
Версия формата : Version 1
Профиль формата : Layer 3
Режим : Joint stereo
Расширение режима : MS Stereo
Идентификатор кодека : 55
Идентификатор кодека/Подсказка : MP3
Продолжительность : 10 м.
Вид битрейта : Постоянный
Битрейт : 128 Кбит/сек
Канал(ы) : 2 канала(ов)
Частота : 48,0 КГц
Метод сжатия : С потерями
Задержка видео : 288 мс.
Размер потока : 9,16 Мбайт (7%)
Выравнивание : Соединение по промежуткам
Продолжительность промежутка : 40 мс. (1,00 видеокадр)
Время предзагрузки промежутка : 504 ms
Скриншоты:



Серия 7: Погода

Продолжительность: 00:10:06
Качество видео: TVRip
Видеокодек: Xvid
Битрейт видео: ~1775 kb/s
Размер кадра: 704x528
Аудиокодек: MP3, 2 ch
Битрейт аудио: 128 kb/s
Общее
Полное имя : D:\Фильм\Кругосветное путешествие вместе с Хрюшей и...(7.serija).2011.XviD.TVRip..avi
Формат : AVI
Формат/Информация : Audio Video Interleave
Размер файла : 138 Мбайт
Продолжительность : 10 м.
Общий поток : 1913 Кбит/сек
Программа кодирования : VirtualDubMod 1.5.10.2 (build 2540/release)
Библиотека кодирования : VirtualDubMod build 2540/release

Видео
Идентификатор : 0
Формат : MPEG-4 Visual
Профиль формата : Advanced Simple@L5
Параметр BVOP формата : 2
Параметр QPel формата : Нет
Параметр GMC формата : Без точки перехода
Параметр матрицы формата : Default (H.263)
Режим смешивания : Сжатый битовый поток
Идентификатор кодека : XVID
Идентификатор кодека/Подсказка : XviD
Продолжительность : 10 м.
Битрейт : 1775 Кбит/сек
Ширина : 704 пикс.
Высота : 528 пикс.
Соотношение сторон : 4:3
Частота кадров : 25,000 кадр/сек
Цветовое пространство : YUV
Подвыборка цветности : 4:2:0
Битовая глубина : 8 бит
Тип развёртки : Прогрессивная
Метод сжатия : С потерями
Бит/(Пиксели*Кадры) : 0.191
Размер потока : 128 Мбайт (93%)
Библиотека кодирования : XviD 1.2.1 (UTC 2008-12-04)

Аудио
Идентификатор : 1
Формат : MPEG Audio
Версия формата : Version 1
Профиль формата : Layer 3
Режим : Joint stereo
Расширение режима : MS Stereo
Идентификатор кодека : 55
Идентификатор кодека/Подсказка : MP3
Продолжительность : 10 м.
Вид битрейта : Постоянный
Битрейт : 128 Кбит/сек
Канал(ы) : 2 канала(ов)
Частота : 48,0 КГц
Метод сжатия : С потерями
Задержка видео : 360 мс.
Размер потока : 9,25 Мбайт (7%)
Выравнивание : Соединение по промежуткам
Продолжительность промежутка : 40 мс. (1,00 видеокадр)
Время предзагрузки промежутка : 504 ms
Скриншоты:



Серия 8: Круговорот воды в природе

Продолжительность: 00:10:00
Качество видео: TVRip
Видеокодек: Xvid
Битрейт видео: ~1810 kb/s
Размер кадра: 704x528
Аудиокодек: MP3,2 ch
Битрейт аудио: 128 kb/s
Общее
Полное имя : G:\Мультфильмы\Кругосветное путешествие вместе с Хрюшей и\Кругосветное путешествие вместе с Хрюшей и...(8.serija).2011.XviD.TVRip..avi
Формат : AVI
Формат/Информация : Audio Video Interleave
Размер файла : 139 Мбайт
Продолжительность : 10 м.
Общий поток : 1948 Кбит/сек
Программа кодирования : VirtualDubMod 1.5.10.2 (build 2540/release)
Библиотека кодирования : VirtualDubMod build 2540/release

Видео
Идентификатор : 0
Формат : MPEG-4 Visual
Профиль формата : Advanced Simple@L5
Параметр BVOP формата : 2
Параметр QPel формата : Нет
Параметр GMC формата : Без точки перехода
Параметр матрицы формата : Default (H.263)
Режим смешивания : Сжатый битовый поток
Идентификатор кодека : XVID
Идентификатор кодека/Подсказка : XviD
Продолжительность : 10 м.
Битрейт : 1810 Кбит/сек
Ширина : 704 пикс.
Высота : 528 пикс.
Соотношение сторон : 4:3
Частота кадров : 25,000 кадр/сек
Цветовое пространство : YUV
Подвыборка цветности : 4:2:0
Битовая глубина : 8 бит
Тип развёртки : Прогрессивная
Метод сжатия : С потерями
Бит/(Пиксели*Кадры) : 0.195
Размер потока : 130 Мбайт (93%)
Библиотека кодирования : XviD 1.2.1 (UTC 2008-12-04)

Аудио
Идентификатор : 1
Формат : MPEG Audio
Версия формата : Version 1
Профиль формата : Layer 3
Режим : Joint stereo
Расширение режима : MS Stereo
Идентификатор кодека : 55
Идентификатор кодека/Подсказка : MP3
Продолжительность : 10 м.
Вид битрейта : Постоянный
Битрейт : 128 Кбит/сек
Канал(ы) : 2 канала(ов)
Частота : 48,0 КГц
Метод сжатия : С потерями
Задержка видео : 528 мс.
Размер потока : 9,16 Мбайт (7%)
Выравнивание : Разделение по промежуткам
Продолжительность промежутка : 40 мс. (1,00 видеокадр)
Время предзагрузки промежутка : 504 ms
Скриншоты:



Серия 9: Экватор

Продолжительность: 00:10:07
Качество видео: TVRip
Видеокодек: Xvid
Битрейт видео: ~1788 kb/s
Размер кадра: 704x528
Аудиокодек: MP3, 2 ch
Битрейт аудио: 128 kb/s
Общее
Полное имя : G:\Мультфильмы\Кругосветное путешествие вместе с Хрюшей и\Кругосветное путешествие вместе с Хрюшей и...(9.serija).2011.XviD.TVRip.avi
Формат : AVI
Формат/Информация : Audio Video Interleave
Размер файла : 139 Мбайт
Продолжительность : 10 м.
Общий поток : 1926 Кбит/сек
Программа кодирования : VirtualDubMod 1.5.10.2 (build 2540/release)
Библиотека кодирования : VirtualDubMod build 2540/release

Видео
Идентификатор : 0
Формат : MPEG-4 Visual
Профиль формата : Advanced Simple@L5
Параметр BVOP формата : 2
Параметр QPel формата : Нет
Параметр GMC формата : Без точки перехода
Параметр матрицы формата : Default (H.263)
Режим смешивания : Сжатый битовый поток
Идентификатор кодека : XVID
Идентификатор кодека/Подсказка : XviD
Продолжительность : 10 м.
Битрейт : 1788 Кбит/сек
Ширина : 704 пикс.
Высота : 528 пикс.
Соотношение сторон : 4:3
Частота кадров : 25,000 кадр/сек
Цветовое пространство : YUV
Подвыборка цветности : 4:2:0
Битовая глубина : 8 бит
Тип развёртки : Прогрессивная
Метод сжатия : С потерями
Бит/(Пиксели*Кадры) : 0.192
Размер потока : 129 Мбайт (93%)
Библиотека кодирования : XviD 1.2.1 (UTC 2008-12-04)

Аудио
Идентификатор : 1
Формат : MPEG Audio
Версия формата : Version 1
Профиль формата : Layer 3
Режим : Joint stereo
Расширение режима : MS Stereo
Идентификатор кодека : 55
Идентификатор кодека/Подсказка : MP3
Продолжительность : 10 м.
Вид битрейта : Постоянный
Битрейт : 128 Кбит/сек
Канал(ы) : 2 канала(ов)
Частота : 48,0 КГц
Метод сжатия : С потерями
Задержка видео : 288 мс.
Размер потока : 9,27 Мбайт (7%)
Выравнивание : Соединение по промежуткам
Продолжительность промежутка : 40 мс. (1,00 видеокадр)
Время предзагрузки промежутка : 504 ms
Скриншоты:

Серия 10: Реки и озера

Продолжительность: 00:10:00
Качество видео: TVRip
Видеокодек: Xvid
Битрейт видео: ~1813 kb/s
Размер кадра: 704x528
Аудиокодек: MP3, 2 ch
Битрейт аудио: 128 kb/s
Общее
Полное имя : G:\Мультфильмы\Кругосветное путешествие вместе с Хрюшей и\Кругосветное путешествие вместе с Хрюшей и...(10.serija).2011.XviD.TVRip.avi
Формат : AVI
Формат/Информация : Audio Video Interleave
Размер файла : 140 Мбайт
Продолжительность : 10 м.
Общий поток : 1951 Кбит/сек
Программа кодирования : VirtualDubMod 1.5.10.2 (build 2540/release)
Библиотека кодирования : VirtualDubMod build 2540/release

Видео
Идентификатор : 0
Формат : MPEG-4 Visual
Профиль формата : Advanced Simple@L5
Параметр BVOP формата : 2
Параметр QPel формата : Нет
Параметр GMC формата : Без точки перехода
Параметр матрицы формата : Default (H.263)
Режим смешивания : Сжатый битовый поток
Идентификатор кодека : XVID
Идентификатор кодека/Подсказка : XviD
Продолжительность : 10 м.
Битрейт : 1813 Кбит/сек
Ширина : 704 пикс.
Высота : 528 пикс.
Соотношение сторон : 4:3
Частота кадров : 25,000 кадр/сек
Цветовое пространство : YUV
Подвыборка цветности : 4:2:0
Битовая глубина : 8 бит
Тип развёртки : Прогрессивная
Метод сжатия : С потерями
Бит/(Пиксели*Кадры) : 0.195
Размер потока : 130 Мбайт (93%)
Библиотека кодирования : XviD 1.2.1 (UTC 2008-12-04)

Аудио
Идентификатор : 1
Формат : MPEG Audio
Версия формата : Version 1
Профиль формата : Layer 3
Режим : Joint stereo
Расширение режима : MS Stereo
Идентификатор кодека : 55
Идентификатор кодека/Подсказка : MP3
Продолжительность : 10 м.
Вид битрейта : Постоянный
Битрейт : 128 Кбит/сек
Канал(ы) : 2 канала(ов)
Частота : 48,0 КГц
Метод сжатия : С потерями
Задержка видео : 288 мс.
Размер потока : 9,16 Мбайт (7%)
Выравнивание : Соединение по промежуткам
Продолжительность промежутка : 40 мс. (1,00 видеокадр)
Время предзагрузки промежутка : 504 ms
Скриншоты:



Серия 11: Северный полюс

Продолжительность: 00:10:01
Качество видео: TVRip
Видеокодек: Xvid
Битрейт видео: ~1809 kb/s
Размер кадра: 704x528
Аудиокодек: MP3, 2 ch
Битрейт аудио: 128 kb/s
Общее
Полное имя : G:\Мультфильмы\Кругосветное путешествие вместе с Хрюшей и\Кругосветное путешествие вместе с Хрюшей и...(11.serija).2011.XviD.TVRip.avi
Формат : AVI
Формат/Информация : Audio Video Interleave
Размер файла : 140 Мбайт
Продолжительность : 10 м.
Общий поток : 1947 Кбит/сек
Программа кодирования : VirtualDubMod 1.5.10.2 (build 2540/release)
Библиотека кодирования : VirtualDubMod build 2540/release

Видео
Идентификатор : 0
Формат : MPEG-4 Visual
Профиль формата : Advanced Simple@L5
Параметр BVOP формата : 2
Параметр QPel формата : Нет
Параметр GMC формата : Без точки перехода
Параметр матрицы формата : Default (H.263)
Режим смешивания : Сжатый битовый поток
Идентификатор кодека : XVID
Идентификатор кодека/Подсказка : XviD
Продолжительность : 10 м.
Битрейт : 1809 Кбит/сек
Ширина : 704 пикс.
Высота : 528 пикс.
Соотношение сторон : 4:3
Частота кадров : 25,000 кадр/сек
Цветовое пространство : YUV
Подвыборка цветности : 4:2:0
Битовая глубина : 8 бит
Тип развёртки : Прогрессивная
Метод сжатия : С потерями
Бит/(Пиксели*Кадры) : 0.195
Размер потока : 130 Мбайт (93%)
Библиотека кодирования : XviD 1.2.1 (UTC 2008-12-04)

Аудио
Идентификатор : 1
Формат : MPEG Audio
Версия формата : Version 1
Профиль формата : Layer 3
Режим : Joint stereo
Расширение режима : MS Stereo
Идентификатор кодека : 55
Идентификатор кодека/Подсказка : MP3
Продолжительность : 10 м.
Вид битрейта : Постоянный
Битрейт : 128 Кбит/сек
Канал(ы) : 2 канала(ов)
Частота : 48,0 КГц
Метод сжатия : С потерями
Задержка видео : 288 мс.
Размер потока : 9,17 Мбайт (7%)
Выравнивание : Соединение по промежуткам
Продолжительность промежутка : 40 мс. (1,00 видеокадр)
Время предзагрузки промежутка : 504 ms
Скриншоты:



Серия 12: Подводный мир - коралловые рифы

Продолжительность: 00:09:58
Качество видео: TVRip
Видеокодек: Xvid
Битрейт видео: ~1818 kb/s
Размер кадра: 704x528
Аудиокодек: MP3, 2 ch
Битрейт аудио: 128 kb/s
Общее
Полное имя : G:\Мультфильмы\Кругосветное путешествие вместе с Хрюшей и\Кругосветное путешествие вместе с Хрюшей и...(12.serija).2011.XviD.TVRip..avi
Формат : AVI
Формат/Информация : Audio Video Interleave
Размер файла : 139 Мбайт
Продолжительность : 9 м. 58 с.
Общий поток : 1956 Кбит/сек
Программа кодирования : VirtualDubMod 1.5.10.2 (build 2540/release)
Библиотека кодирования : VirtualDubMod build 2540/release

Видео
Идентификатор : 0
Формат : MPEG-4 Visual
Профиль формата : Advanced Simple@L5
Параметр BVOP формата : 2
Параметр QPel формата : Нет
Параметр GMC формата : Без точки перехода
Параметр матрицы формата : Default (H.263)
Режим смешивания : Сжатый битовый поток
Идентификатор кодека : XVID
Идентификатор кодека/Подсказка : XviD
Продолжительность : 9 м. 58 с.
Битрейт : 1818 Кбит/сек
Ширина : 704 пикс.
Высота : 528 пикс.
Соотношение сторон : 4:3
Частота кадров : 25,000 кадр/сек
Цветовое пространство : YUV
Подвыборка цветности : 4:2:0
Битовая глубина : 8 бит
Тип развёртки : Прогрессивная
Метод сжатия : С потерями
Бит/(Пиксели*Кадры) : 0.196
Размер потока : 130 Мбайт (93%)
Библиотека кодирования : XviD 1.2.1 (UTC 2008-12-04)

Аудио
Идентификатор : 1
Формат : MPEG Audio
Версия формата : Version 1
Профиль формата : Layer 3
Режим : Joint stereo
Расширение режима : MS Stereo
Идентификатор кодека : 55
Идентификатор кодека/Подсказка : MP3
Продолжительность : 9 м. 58 с.
Вид битрейта : Постоянный
Битрейт : 128 Кбит/сек
Канал(ы) : 2 канала(ов)
Частота : 48,0 КГц
Метод сжатия : С потерями
Задержка видео : 288 мс.
Размер потока : 9,13 Мбайт (7%)
Выравнивание : Соединение по промежуткам
Продолжительность промежутка : 40 мс. (1,00 видеокадр)
Время предзагрузки промежутка : 504 ms
Скриншоты:


Серия 13: Пустыня

Продолжительность: 00:09:57
Качество видео: TVRip
Видеокодек: Xvid
Битрейт видео: ~1834 kb/s
Размер кадра: 704x528
Аудиокодек: MP3, 2 ch
Битрейт аудио: 128 kb/s
Полное имя : G:\Мультфильмы\Кругосветное путешествие вместе с Хрюшей и\Кругосветное путешествие вместе с Хрюшей и...(13.serija).2011.XviD.TVRip.avi
Формат : AVI
Формат/Информация : Audio Video Interleave
Размер файла : 140 Мбайт
Продолжительность : 9 м. 57 с.
Общий поток : 1972 Кбит/сек
Программа кодирования : VirtualDubMod 1.5.10.2 (build 2540/release)
Библиотека кодирования : VirtualDubMod build 2540/release

Видео
Идентификатор : 0
Формат : MPEG-4 Visual
Профиль формата : Advanced Simple@L5
Параметр BVOP формата : 2
Параметр QPel формата : Нет
Параметр GMC формата : Без точки перехода
Параметр матрицы формата : Default (H.263)
Режим смешивания : Сжатый битовый поток
Идентификатор кодека : XVID
Идентификатор кодека/Подсказка : XviD
Продолжительность : 9 м. 57 с.
Битрейт : 1834 Кбит/сек
Ширина : 704 пикс.
Высота : 528 пикс.
Соотношение сторон : 4:3
Частота кадров : 25,000 кадр/сек
Цветовое пространство : YUV
Подвыборка цветности : 4:2:0
Битовая глубина : 8 бит
Тип развёртки : Прогрессивная
Метод сжатия : С потерями
Бит/(Пиксели*Кадры) : 0.197
Размер потока : 131 Мбайт (93%)
Библиотека кодирования : XviD 1.2.1 (UTC 2008-12-04)

Аудио
Идентификатор : 1
Формат : MPEG Audio
Версия формата : Version 1
Профиль формата : Layer 3
Режим : Joint stereo
Расширение режима : MS Stereo
Идентификатор кодека : 55
Идентификатор кодека/Подсказка : MP3
Продолжительность : 9 м. 57 с.
Вид битрейта : Постоянный
Битрейт : 128 Кбит/сек
Канал(ы) : 2 канала(ов)
Частота : 48,0 КГц
Метод сжатия : С потерями
Задержка видео : 288 мс.
Размер потока : 9,11 Мбайт (6%)
Выравнивание : Соединение по промежуткам
Продолжительность промежутка : 40 мс. (1,00 видеокадр)
Время предзагрузки промежутка : 504 ms
Скриншоты:


Серия 14: Почему дует ветер?

Продолжительность: 00:09:58
Качество видео: TVRip
Видеокодек: Xvid
Битрейт видео: ~1763 kb/s
Размер кадра: 704x528
Аудиокодек: MP3, 2 ch
Битрейт аудио: 128 kb/s
Общее
Полное имя : G:\Мультфильмы\Кругосветное путешествие вместе с Хрюшей и\Кругосветное путешествие вместе с Хрюшей и...(14.serija).2011.XviD.TVRip.avi
Формат : AVI
Формат/Информация : Audio Video Interleave
Размер файла : 136 Мбайт
Продолжительность : 9 м. 58 с.
Общий поток : 1901 Кбит/сек
Программа кодирования : VirtualDubMod 1.5.10.2 (build 2540/release)
Библиотека кодирования : VirtualDubMod build 2540/release

Видео
Идентификатор : 0
Формат : MPEG-4 Visual
Профиль формата : Advanced Simple@L5
Параметр BVOP формата : 2
Параметр QPel формата : Нет
Параметр GMC формата : Без точки перехода
Параметр матрицы формата : Default (H.263)
Режим смешивания : Сжатый битовый поток
Идентификатор кодека : XVID
Идентификатор кодека/Подсказка : XviD
Продолжительность : 9 м. 58 с.
Битрейт : 1763 Кбит/сек
Ширина : 704 пикс.
Высота : 528 пикс.
Соотношение сторон : 4:3
Частота кадров : 25,000 кадр/сек
Цветовое пространство : YUV
Подвыборка цветности : 4:2:0
Битовая глубина : 8 бит
Тип развёртки : Прогрессивная
Метод сжатия : С потерями
Бит/(Пиксели*Кадры) : 0.190
Размер потока : 126 Мбайт (93%)
Библиотека кодирования : XviD 1.2.1 (UTC 2008-12-04)

Аудио
Идентификатор : 1
Формат : MPEG Audio
Версия формата : Version 1
Профиль формата : Layer 3
Режим : Joint stereo
Расширение режима : MS Stereo
Идентификатор кодека : 55
Идентификатор кодека/Подсказка : MP3
Продолжительность : 9 м. 58 с.
Вид битрейта : Постоянный
Битрейт : 128 Кбит/сек
Канал(ы) : 2 канала(ов)
Частота : 48,0 КГц
Метод сжатия : С потерями
Задержка видео : 288 мс.
Размер потока : 9,13 Мбайт (7%)
Выравнивание : Соединение по промежуткам
Продолжительность промежутка : 40 мс. (1,00 видеокадр)
Время предзагрузки промежутка : 504 ms
Скриншоты:


Серия 15: Сильный ветер - смерч, ураган.

Продолжительность: 00:09:57
Качество видео: TVRip
Видеокодек: Xvid
Битрейт видео: ~1825 kb/s
Размер кадра: 704x528
Аудиокодек: MP3, 2 ch
Битрейт аудио: 128 kb/s
Общее
Полное имя : G:\Мультфильмы\Кругосветное путешествие вместе с Хрюшей и\Кругосветное путешествие вместе с Хрюшей и...(15.serija).2011.XviD.TVRip.avi
Формат : AVI
Формат/Информация : Audio Video Interleave
Размер файла : 140 Мбайт
Продолжительность : 9 м. 57 с.
Общий поток : 1962 Кбит/сек
Программа кодирования : VirtualDubMod 1.5.10.2 (build 2540/release)
Библиотека кодирования : VirtualDubMod build 2540/release

Видео
Идентификатор : 0
Формат : MPEG-4 Visual
Профиль формата : Advanced Simple@L5
Параметр BVOP формата : 2
Параметр QPel формата : Нет
Параметр GMC формата : Без точки перехода
Параметр матрицы формата : Default (H.263)
Режим смешивания : Сжатый битовый поток
Идентификатор кодека : XVID
Идентификатор кодека/Подсказка : XviD
Продолжительность : 9 м. 57 с.
Битрейт : 1825 Кбит/сек
Ширина : 704 пикс.
Высота : 528 пикс.
Соотношение сторон : 4:3
Частота кадров : 25,000 кадр/сек
Цветовое пространство : YUV
Подвыборка цветности : 4:2:0
Битовая глубина : 8 бит
Тип развёртки : Прогрессивная
Метод сжатия : С потерями
Бит/(Пиксели*Кадры) : 0.196
Размер потока : 130 Мбайт (93%)
Библиотека кодирования : XviD 1.2.1 (UTC 2008-12-04)

Аудио
Идентификатор : 1
Формат : MPEG Audio
Версия формата : Version 1
Профиль формата : Layer 3
Режим : Joint stereo
Расширение режима : MS Stereo
Идентификатор кодека : 55
Идентификатор кодека/Подсказка : MP3
Продолжительность : 9 м. 57 с.
Вид битрейта : Постоянный
Битрейт : 128 Кбит/сек
Канал(ы) : 2 канала(ов)
Частота : 48,0 КГц
Метод сжатия : С потерями
Задержка видео : 288 мс.
Размер потока : 9,12 Мбайт (7%)
Выравнивание : Соединение по промежуткам
Продолжительность промежутка : 40 мс. (1,00 видеокадр)
Время предзагрузки промежутка : 504 ms
Скриншоты:


Серия 16: Москва - город на семи холмах

Продолжительность: 00:10:01
Качество видео: TVRip
Видеокодек: Xvid
Битрейт видео: ~1811 kb/s
Размер кадра: 704x528
Аудиокодек: MP3, 2 ch
Битрейт аудио: 128 kb/s
Общее
Полное имя : G:\Мультфильмы\Кругосветное путешествие вместе с Хрюшей и\Кругосветное путешествие вместе с Хрюшей и...(16.serija).2011.XviD.TVRip..avi
Формат : AVI
Формат/Информация : Audio Video Interleave
Размер файла : 140 Мбайт
Продолжительность : 10 м.
Общий поток : 1948 Кбит/сек
Программа кодирования : VirtualDubMod 1.5.10.2 (build 2540/release)
Библиотека кодирования : VirtualDubMod build 2540/release

Видео
Идентификатор : 0
Формат : MPEG-4 Visual
Профиль формата : Advanced Simple@L5
Параметр BVOP формата : 2
Параметр QPel формата : Нет
Параметр GMC формата : Без точки перехода
Параметр матрицы формата : Default (H.263)
Режим смешивания : Сжатый битовый поток
Идентификатор кодека : XVID
Идентификатор кодека/Подсказка : XviD
Продолжительность : 10 м.
Битрейт : 1811 Кбит/сек
Ширина : 704 пикс.
Высота : 528 пикс.
Соотношение сторон : 4:3
Частота кадров : 25,000 кадр/сек
Цветовое пространство : YUV
Подвыборка цветности : 4:2:0
Битовая глубина : 8 бит
Тип развёртки : Прогрессивная
Метод сжатия : С потерями
Бит/(Пиксели*Кадры) : 0.195
Размер потока : 130 Мбайт (93%)
Библиотека кодирования : XviD 1.2.1 (UTC 2008-12-04)

Аудио
Идентификатор : 1
Формат : MPEG Audio
Версия формата : Version 1
Профиль формата : Layer 3
Режим : Joint stereo
Расширение режима : MS Stereo
Идентификатор кодека : 55
Идентификатор кодека/Подсказка : MP3
Продолжительность : 10 м.
Вид битрейта : Постоянный
Битрейт : 128 Кбит/сек
Канал(ы) : 2 канала(ов)
Частота : 48,0 КГц
Метод сжатия : С потерями
Задержка видео : 288 мс.
Размер потока : 9,17 Мбайт (7%)
Выравнивание : Соединение по промежуткам
Продолжительность промежутка : 40 мс. (1,00 видеокадр)
Время предзагрузки промежутка : 504 ms
Скриншоты:

Серия 17: Разноцветные моря

Продолжительность: 00:09:59
Качество видео: TVRip
Видеокодек: Xvid
Битрейт видео: ~1817 kb/s
Размер кадра: 704x528
Аудиокодек: MP3, 2 ch
Битрейт аудио: 128 kb/s
Общее
Полное имя : G:\Мультфильмы\Кругосветное путешествие вместе с Хрюшей и\Кругосветное путешествие вместе с Хрюшей и...(17.serija).2011.XviD.TVRip..avi
Формат : AVI
Формат/Информация : Audio Video Interleave
Размер файла : 140 Мбайт
Продолжительность : 9 м. 59 с.
Общий поток : 1955 Кбит/сек
Программа кодирования : VirtualDubMod 1.5.10.2 (build 2540/release)
Библиотека кодирования : VirtualDubMod build 2540/release

Видео
Идентификатор : 0
Формат : MPEG-4 Visual
Профиль формата : Advanced Simple@L5
Параметр BVOP формата : 2
Параметр QPel формата : Нет
Параметр GMC формата : Без точки перехода
Параметр матрицы формата : Default (H.263)
Режим смешивания : Сжатый битовый поток
Идентификатор кодека : XVID
Идентификатор кодека/Подсказка : XviD
Продолжительность : 9 м. 59 с.
Битрейт : 1817 Кбит/сек
Ширина : 704 пикс.
Высота : 528 пикс.
Соотношение сторон : 4:3
Частота кадров : 25,000 кадр/сек
Цветовое пространство : YUV
Подвыборка цветности : 4:2:0
Битовая глубина : 8 бит
Тип развёртки : Прогрессивная
Метод сжатия : С потерями
Бит/(Пиксели*Кадры) : 0.196
Размер потока : 130 Мбайт (93%)
Библиотека кодирования : XviD 1.2.1 (UTC 2008-12-04)

Аудио
Идентификатор : 1
Формат : MPEG Audio
Версия формата : Version 1
Профиль формата : Layer 3
Режим : Joint stereo
Расширение режима : MS Stereo
Идентификатор кодека : 55
Идентификатор кодека/Подсказка : MP3
Продолжительность : 9 м. 59 с.
Вид битрейта : Постоянный
Битрейт : 128 Кбит/сек
Канал(ы) : 2 канала(ов)
Частота : 48,0 КГц
Метод сжатия : С потерями
Задержка видео : 288 мс.
Размер потока : 9,15 Мбайт (7%)
Выравнивание : Соединение по промежуткам
Продолжительность промежутка : 40 мс. (1,00 видеокадр)
Время предзагрузки промежутка : 504 ms
Скриншоты:

Серия 18: Озеро Байкал

Продолжительность: 00:09:56
Качество видео: TVRip
Видеокодек: Xvid
Битрейт видео: ~1827 kb/s
Размер кадра: 704x528
Аудиокодек: MP3, 2 ch
Битрейт аудио: 128 kb/s
Общее
Полное имя : G:\Мультфильмы\Кругосветное путешествие вместе с Хрюшей и\Кругосветное путешествие вместе с Хрюшей и...(18.serija).2011.XviD.TVRip.avi
Формат : AVI
Формат/Информация : Audio Video Interleave
Размер файла : 140 Мбайт
Продолжительность : 9 м. 56 с.
Общий поток : 1965 Кбит/сек
Программа кодирования : VirtualDubMod 1.5.10.2 (build 2540/release)
Библиотека кодирования : VirtualDubMod build 2540/release

Видео
Идентификатор : 0
Формат : MPEG-4 Visual
Профиль формата : Advanced Simple@L5
Параметр BVOP формата : 2
Параметр QPel формата : Нет
Параметр GMC формата : Без точки перехода
Параметр матрицы формата : Default (H.263)
Режим смешивания : Сжатый битовый поток
Идентификатор кодека : XVID
Идентификатор кодека/Подсказка : XviD
Продолжительность : 9 м. 56 с.
Битрейт : 1827 Кбит/сек
Ширина : 704 пикс.
Высота : 528 пикс.
Соотношение сторон : 4:3
Частота кадров : 25,000 кадр/сек
Цветовое пространство : YUV
Подвыборка цветности : 4:2:0
Битовая глубина : 8 бит
Тип развёртки : Прогрессивная
Метод сжатия : С потерями
Бит/(Пиксели*Кадры) : 0.197
Размер потока : 130 Мбайт (93%)
Библиотека кодирования : XviD 1.2.1 (UTC 2008-12-04)

Аудио
Идентификатор : 1
Формат : MPEG Audio
Версия формата : Version 1
Профиль формата : Layer 3
Режим : Joint stereo
Расширение режима : MS Stereo
Идентификатор кодека : 55
Идентификатор кодека/Подсказка : MP3
Продолжительность : 9 м. 56 с.
Вид битрейта : Постоянный
Битрейт : 128 Кбит/сек
Канал(ы) : 2 канала(ов)
Частота : 48,0 КГц
Метод сжатия : С потерями
Задержка видео : 288 мс.
Размер потока : 9,10 Мбайт (7%)
Выравнивание : Соединение по промежуткам
Продолжительность промежутка : 40 мс. (1,00 видеокадр)
Время предзагрузки промежутка : 504 ms
Скриншоты:



Серия 19: Пещеры

Продолжительность: 00:09:55
Качество видео: TVRip
Видеокодек: Xvid
Битрейт видео: ~1735 kb/s
Размер кадра: 704x528
Аудиокодек: MP3, 2 ch
Битрейт аудио: 128 kb/s
Общее
Полное имя : G:\Мультфильмы\Кругосветное путешествие вместе с Хрюшей и\Кругосветное путешествие вместе с Хрюшей и...(19.serija).2011.XviD.TVRip..avi
Формат : AVI
Формат/Информация : Audio Video Interleave
Размер файла : 133 Мбайт
Продолжительность : 9 м. 55 с.
Общий поток : 1872 Кбит/сек
Программа кодирования : VirtualDubMod 1.5.10.2 (build 2540/release)
Библиотека кодирования : VirtualDubMod build 2540/release

Видео
Идентификатор : 0
Формат : MPEG-4 Visual
Профиль формата : Advanced Simple@L5
Параметр BVOP формата : 2
Параметр QPel формата : Нет
Параметр GMC формата : Без точки перехода
Параметр матрицы формата : Default (H.263)
Режим смешивания : Сжатый битовый поток
Идентификатор кодека : XVID
Идентификатор кодека/Подсказка : XviD
Продолжительность : 9 м. 55 с.
Битрейт : 1735 Кбит/сек
Ширина : 704 пикс.
Высота : 528 пикс.
Соотношение сторон : 4:3
Частота кадров : 25,000 кадр/сек
Цветовое пространство : YUV
Подвыборка цветности : 4:2:0
Битовая глубина : 8 бит
Тип развёртки : Прогрессивная
Метод сжатия : С потерями
Бит/(Пиксели*Кадры) : 0.187
Размер потока : 123 Мбайт (93%)
Библиотека кодирования : XviD 1.2.1 (UTC 2008-12-04)

Аудио
Идентификатор : 1
Формат : MPEG Audio
Версия формата : Version 1
Профиль формата : Layer 3
Режим : Joint stereo
Расширение режима : MS Stereo
Идентификатор кодека : 55
Идентификатор кодека/Подсказка : MP3
Продолжительность : 9 м. 55 с.
Вид битрейта : Постоянный
Битрейт : 128 Кбит/сек
Канал(ы) : 2 канала(ов)
Частота : 48,0 КГц
Метод сжатия : С потерями
Задержка видео : 288 мс.
Размер потока : 9,09 Мбайт (7%)
Выравнивание : Соединение по промежуткам
Продолжительность промежутка : 40 мс. (1,00 видеокадр)
Время предзагрузки промежутка : 504 ms
Скриншоты:



Серия 20: Камчатка

Продолжительность: 00:10:00
Качество видео: TVRip
Видеокодек: Xvid
Битрейт видео: ~1812 kb/s
Размер кадра: 704x528
Аудиокодек: MP3, 2 ch
Битрейт аудио: 128 kb/s
Общее
Полное имя : G:\Мультфильмы\Кругосветное путешествие вместе с Хрюшей и\Кругосветное путешествие вместе с Хрюшей и...(20.serija).2011.XviD.TVRip..avi
Формат : AVI
Формат/Информация : Audio Video Interleave
Размер файла : 140 Мбайт
Продолжительность : 10 м.
Общий поток : 1950 Кбит/сек
Программа кодирования : VirtualDubMod 1.5.10.2 (build 2540/release)
Библиотека кодирования : VirtualDubMod build 2540/release

Видео
Идентификатор : 0
Формат : MPEG-4 Visual
Профиль формата : Advanced Simple@L5
Параметр BVOP формата : 2
Параметр QPel формата : Нет
Параметр GMC формата : Без точки перехода
Параметр матрицы формата : Default (H.263)
Режим смешивания : Сжатый битовый поток
Идентификатор кодека : XVID
Идентификатор кодека/Подсказка : XviD
Продолжительность : 10 м.
Битрейт : 1812 Кбит/сек
Ширина : 704 пикс.
Высота : 528 пикс.
Соотношение сторон : 4:3
Частота кадров : 25,000 кадр/сек
Цветовое пространство : YUV
Подвыборка цветности : 4:2:0
Битовая глубина : 8 бит
Тип развёртки : Прогрессивная
Метод сжатия : С потерями
Бит/(Пиксели*Кадры) : 0.195
Размер потока : 130 Мбайт (93%)
Библиотека кодирования : XviD 1.2.1 (UTC 2008-12-04)

Аудио
Идентификатор : 1
Формат : MPEG Audio
Версия формата : Version 1
Профиль формата : Layer 3
Режим : Joint stereo
Расширение режима : MS Stereo
Идентификатор кодека : 55
Идентификатор кодека/Подсказка : MP3
Продолжительность : 10 м.
Вид битрейта : Постоянный
Битрейт : 128 Кбит/сек
Канал(ы) : 2 канала(ов)
Частота : 48,0 КГц
Метод сжатия : С потерями
Задержка видео : 288 мс.
Размер потока : 9,16 Мбайт (7%)
Выравнивание : Соединение по промежуткам
Продолжительность промежутка : 40 мс. (1,00 видеокадр)
Время предзагрузки промежутка : 504 ms
Скриншоты:



Серия 21: Африка

Продолжительность: 00:10:07
Качество видео: TVRip
Видеокодек: Xvid
Битрейт видео: ~1828 kb/s
Размер кадра: 704x528
Аудиокодек: MP3, 2 ch
Битрейт аудио: 128 kb/s
Общее
Полное имя : G:\Мультфильмы\Кругосветное путешествие вместе с Хрюшей и\Кругосветное путешествие вместе с Хрюшей и...(21.serija).2011.XviD.TVRip..avi
Формат : AVI
Формат/Информация : Audio Video Interleave
Размер файла : 142 Мбайт
Продолжительность : 10 м.
Общий поток : 1966 Кбит/сек
Программа кодирования : VirtualDubMod 1.5.10.2 (build 2540/release)
Библиотека кодирования : VirtualDubMod build 2540/release

Видео
Идентификатор : 0
Формат : MPEG-4 Visual
Профиль формата : Advanced Simple@L5
Параметр BVOP формата : 2
Параметр QPel формата : Нет
Параметр GMC формата : Без точки перехода
Параметр матрицы формата : Default (H.263)
Режим смешивания : Сжатый битовый поток
Идентификатор кодека : XVID
Идентификатор кодека/Подсказка : XviD
Продолжительность : 10 м.
Битрейт : 1828 Кбит/сек
Ширина : 704 пикс.
Высота : 528 пикс.
Соотношение сторон : 4:3
Частота кадров : 25,000 кадр/сек
Цветовое пространство : YUV
Подвыборка цветности : 4:2:0
Битовая глубина : 8 бит
Тип развёртки : Прогрессивная
Метод сжатия : С потерями
Бит/(Пиксели*Кадры) : 0.197
Размер потока : 132 Мбайт (93%)
Библиотека кодирования : XviD 1.2.1 (UTC 2008-12-04)

Аудио
Идентификатор : 1
Формат : MPEG Audio
Версия формата : Version 1
Профиль формата : Layer 3
Режим : Joint stereo
Расширение режима : MS Stereo
Идентификатор кодека : 55
Идентификатор кодека/Подсказка : MP3
Продолжительность : 10 м.
Вид битрейта : Постоянный
Битрейт : 128 Кбит/сек
Канал(ы) : 2 канала(ов)
Частота : 48,0 КГц
Метод сжатия : С потерями
Задержка видео : 288 мс.
Размер потока : 9,27 Мбайт (7%)
Выравнивание : Соединение по промежуткам
Продолжительность промежутка : 40 мс. (1,00 видеокадр)
Время предзагрузки промежутка : 504 ms
Скриншоты:



Серия 22: Южная Америка

Продолжительность: 00:09:56
Качество видео: TVRip
Видеокодек: Xvid
Битрейт видео: ~1831 kb/s
Размер кадра: 704x528
Аудиокодек: MP3, 2 ch
Битрейт аудио: 128 kb/s
Общее
Полное имя : G:\Мультфильмы\Кругосветное путешествие вместе с Хрюшей и\Кругосветное путешествие вместе с Хрюшей и...(22.serija).2011.XviD.TVRip..avi
Формат : AVI
Формат/Информация : Audio Video Interleave
Размер файла : 140 Мбайт
Продолжительность : 9 м. 56 с.
Общий поток : 1969 Кбит/сек
Программа кодирования : VirtualDubMod 1.5.10.2 (build 2540/release)
Библиотека кодирования : VirtualDubMod build 2540/release

Видео
Идентификатор : 0
Формат : MPEG-4 Visual
Профиль формата : Advanced Simple@L5
Параметр BVOP формата : 2
Параметр QPel формата : Нет
Параметр GMC формата : Без точки перехода
Параметр матрицы формата : Default (H.263)
Режим смешивания : Сжатый битовый поток
Идентификатор кодека : XVID
Идентификатор кодека/Подсказка : XviD
Продолжительность : 9 м. 56 с.
Битрейт : 1831 Кбит/сек
Ширина : 704 пикс.
Высота : 528 пикс.
Соотношение сторон : 4:3
Частота кадров : 25,000 кадр/сек
Цветовое пространство : YUV
Подвыборка цветности : 4:2:0
Битовая глубина : 8 бит
Тип развёртки : Прогрессивная
Метод сжатия : С потерями
Бит/(Пиксели*Кадры) : 0.197
Размер потока : 130 Мбайт (93%)
Библиотека кодирования : XviD 1.2.1 (UTC 2008-12-04)

Аудио
Идентификатор : 1
Формат : MPEG Audio
Версия формата : Version 1
Профиль формата : Layer 3
Режим : Joint stereo
Расширение режима : MS Stereo
Идентификатор кодека : 55
Идентификатор кодека/Подсказка : MP3
Продолжительность : 9 м. 56 с.
Вид битрейта : Постоянный
Битрейт : 128 Кбит/сек
Канал(ы) : 2 канала(ов)
Частота : 48,0 КГц
Метод сжатия : С потерями
Задержка видео : 288 мс.
Размер потока : 9,10 Мбайт (7%)
Выравнивание : Соединение по промежуткам
Продолжительность промежутка : 40 мс. (1,00 видеокадр)
Время предзагрузки промежутка : 504 ms
Скриншоты:

Серия 23: Северная Америка

Продолжительность: 00:09:59
Качество видео: TVRip
Видеокодек: Xvid
Битрейт видео: ~1776 kb/s
Размер кадра: 704x528
Аудиокодек: MP3, 2 ch
Битрейт аудио: 128 kb/s
Общее
Полное имя : G:\Мультфильмы\Кругосветное путешествие вместе с Хрюшей и\Кругосветное путешествие вместе с Хрюшей и...(23.serija).2011.XviD.TVRip..avi
Формат : AVI
Формат/Информация : Audio Video Interleave
Размер файла : 137 Мбайт
Продолжительность : 9 м. 59 с.
Общий поток : 1914 Кбит/сек
Программа кодирования : VirtualDubMod 1.5.10.2 (build 2540/release)
Библиотека кодирования : VirtualDubMod build 2540/release

Видео
Идентификатор : 0
Формат : MPEG-4 Visual
Профиль формата : Advanced Simple@L5
Параметр BVOP формата : 2
Параметр QPel формата : Нет
Параметр GMC формата : Без точки перехода
Параметр матрицы формата : Default (H.263)
Режим смешивания : Сжатый битовый поток
Идентификатор кодека : XVID
Идентификатор кодека/Подсказка : XviD
Продолжительность : 9 м. 59 с.
Битрейт : 1776 Кбит/сек
Ширина : 704 пикс.
Высота : 528 пикс.
Соотношение сторон : 4:3
Частота кадров : 25,000 кадр/сек
Цветовое пространство : YUV
Подвыборка цветности : 4:2:0
Битовая глубина : 8 бит
Тип развёртки : Прогрессивная
Метод сжатия : С потерями
Бит/(Пиксели*Кадры) : 0.191
Размер потока : 127 Мбайт (93%)
Библиотека кодирования : XviD 1.2.1 (UTC 2008-12-04)

Скриншоты:

Аудио
Идентификатор : 1
Формат : MPEG Audio
Версия формата : Version 1
Профиль формата : Layer 3
Режим : Joint stereo
Расширение режима : MS Stereo
Идентификатор кодека : 55
Идентификатор кодека/Подсказка : MP3
Продолжительность : 9 м. 59 с.
Вид битрейта : Постоянный
Битрейт : 128 Кбит/сек
Канал(ы) : 2 канала(ов)
Частота : 48,0 КГц
Метод сжатия : С потерями
Размер потока : 9,15 Мбайт (7%)
Выравнивание : Соединение по промежуткам
Продолжительность промежутка : 40 мс. (1,00 видеокадр)
Время предзагрузки промежутка : 504 ms
Скриншоты:

Серия 24: Австралия

Продолжительность: 00:09:57
Качество видео: TVRip
Видеокодек: Xvid
Битрейт видео: ~1800 kb/s
Размер кадра: 704x528
Аудиокодек: MP3, 2 ch
Битрейт аудио: 128 kb/s
Общее
Полное имя : G:\Мультфильмы\Кругосветное путешествие вместе с Хрюшей и\Кругосветное путешествие вместе с Хрюшей и...(24.serija).2011.XviD.TVRip..avi
Формат : AVI
Формат/Информация : Audio Video Interleave
Размер файла : 138 Мбайт
Продолжительность : 9 м. 57 с.
Общий поток : 1938 Кбит/сек
Программа кодирования : VirtualDubMod 1.5.10.2 (build 2540/release)
Библиотека кодирования : VirtualDubMod build 2540/release

Видео
Идентификатор : 0
Формат : MPEG-4 Visual
Профиль формата : Advanced Simple@L5
Параметр BVOP формата : 2
Параметр QPel формата : Нет
Параметр GMC формата : Без точки перехода
Параметр матрицы формата : Default (H.263)
Режим смешивания : Сжатый битовый поток
Идентификатор кодека : XVID
Идентификатор кодека/Подсказка : XviD
Продолжительность : 9 м. 57 с.
Битрейт : 1800 Кбит/сек
Ширина : 704 пикс.
Высота : 528 пикс.
Соотношение сторон : 4:3
Частота кадров : 25,000 кадр/сек
Цветовое пространство : YUV
Подвыборка цветности : 4:2:0
Битовая глубина : 8 бит
Тип развёртки : Прогрессивная
Метод сжатия : С потерями
Бит/(Пиксели*Кадры) : 0.194
Размер потока : 128 Мбайт (93%)
Библиотека кодирования : XviD 1.2.1 (UTC 2008-12-04)

Аудио
Идентификатор : 1
Формат : MPEG Audio
Версия формата : Version 1
Профиль формата : Layer 3
Режим : Joint stereo
Расширение режима : MS Stereo
Идентификатор кодека : 55
Идентификатор кодека/Подсказка : MP3
Продолжительность : 9 м. 57 с.
Вид битрейта : Постоянный
Битрейт : 128 Кбит/сек
Канал(ы) : 2 канала(ов)
Частота : 48,0 КГц
Метод сжатия : С потерями
Задержка видео : 288 мс.
Размер потока : 9,12 Мбайт (7%)
Выравнивание : Соединение по промежуткам
Продолжительность промежутка : 40 мс. (1,00 видеокадр)
Время предзагрузки промежутка : 504 ms
Скриншоты:

Серия 25: Новая Зеландия

Продолжительность: 00:10:11
Качество видео: TVRip
Видеокодек: Xvid
Битрейт видео: ~1788 kb/s
Размер кадра: 704x528
Аудиокодек: MP3, 2 ch
Битрейт аудио: 128 kb/s
Общее
Полное имя : G:\Мультфильмы\Кругосветное путешествие вместе с Хрюшей и\Кругосветное путешествие вместе с Хрюшей и...(25.serija).2011.XviD.TVRip..avi
Формат : AVI
Формат/Информация : Audio Video Interleave
Размер файла : 140 Мбайт
Продолжительность : 10 м.
Общий поток : 1926 Кбит/сек
Программа кодирования : VirtualDubMod 1.5.10.2 (build 2540/release)
Библиотека кодирования : VirtualDubMod build 2540/release

Видео
Идентификатор : 0
Формат : MPEG-4 Visual
Профиль формата : Advanced Simple@L5
Параметр BVOP формата : 2
Параметр QPel формата : Нет
Параметр GMC формата : Без точки перехода
Параметр матрицы формата : Default (H.263)
Режим смешивания : Сжатый битовый поток
Идентификатор кодека : XVID
Идентификатор кодека/Подсказка : XviD
Продолжительность : 10 м.
Битрейт : 1788 Кбит/сек
Ширина : 704 пикс.
Высота : 528 пикс.
Соотношение сторон : 4:3
Частота кадров : 25,000 кадр/сек
Цветовое пространство : YUV
Подвыборка цветности : 4:2:0
Битовая глубина : 8 бит
Тип развёртки : Прогрессивная
Метод сжатия : С потерями
Бит/(Пиксели*Кадры) : 0.192
Размер потока : 130 Мбайт (93%)
Библиотека кодирования : XviD 58

Аудио
Идентификатор : 1
Формат : MPEG Audio
Версия формата : Version 1
Профиль формата : Layer 3
Режим : Joint stereo
Расширение режима : MS Stereo
Идентификатор кодека : 55
Идентификатор кодека/Подсказка : MP3
Продолжительность : 10 м.
Вид битрейта : Постоянный
Битрейт : 128 Кбит/сек
Канал(ы) : 2 канала(ов)
Частота : 48,0 КГц
Метод сжатия : С потерями
Задержка видео : 168 мс.
Размер потока : 9,33 Мбайт (7%)
Выравнивание : Соединение по промежуткам
Продолжительность промежутка : 40 мс. (1,00 видеокадр)
Время предзагрузки промежутка : 504 ms
Скриншоты:

Серия 26: Джунгли

Продолжительность: 00:10:00
Качество видео: TVRip
Видеокодек: Xvid
Битрейт видео: ~1820 kb/s
Размер кадра: 704x528
Аудиокодек: MP3, 2 ch
Битрейт аудио: 128 kb/s
Общее
Полное имя : G:\Мультфильмы\Кругосветное путешествие вместе с Хрюшей и\Кругосветное путешествие вместе с Хрюшей и...(26.serija).2011.XviD.TVRip..avi
Формат : AVI
Формат/Информация : Audio Video Interleave
Размер файла : 140 Мбайт
Продолжительность : 10 м.
Общий поток : 1958 Кбит/сек
Программа кодирования : VirtualDubMod 1.5.10.2 (build 2540/release)
Библиотека кодирования : VirtualDubMod build 2540/release

Видео
Идентификатор : 0
Формат : MPEG-4 Visual
Профиль формата : Advanced Simple@L5
Параметр BVOP формата : 2
Параметр QPel формата : Нет
Параметр GMC формата : Без точки перехода
Параметр матрицы формата : Default (H.263)
Режим смешивания : Сжатый битовый поток
Идентификатор кодека : XVID
Идентификатор кодека/Подсказка : XviD
Продолжительность : 10 м.
Битрейт : 1820 Кбит/сек
Ширина : 704 пикс.
Высота : 528 пикс.
Соотношение сторон : 4:3
Частота кадров : 25,000 кадр/сек
Цветовое пространство : YUV
Подвыборка цветности : 4:2:0
Битовая глубина : 8 бит
Тип развёртки : Прогрессивная
Метод сжатия : С потерями
Бит/(Пиксели*Кадры) : 0.196
Размер потока : 130 Мбайт (93%)
Библиотека кодирования : XviD 58

Аудио
Идентификатор : 1
Формат : MPEG Audio
Версия формата : Version 1
Профиль формата : Layer 3
Режим : Joint stereo
Расширение режима : MS Stereo
Идентификатор кодека : 55
Идентификатор кодека/Подсказка : MP3
Продолжительность : 10 м.
Вид битрейта : Постоянный
Битрейт : 128 Кбит/сек
Канал(ы) : 2 канала(ов)
Частота : 48,0 КГц
Метод сжатия : С потерями
Задержка видео : 168 мс.
Размер потока : 9,16 Мбайт (7%)
Выравнивание : Соединение по промежуткам
Продолжительность промежутка : 40 мс. (1,00 видеокадр)
Время предзагрузки промежутка : 504 ms
Скриншоты:

Серия 27: Карелия

Продолжительность: 00:10:07
Качество видео: TVRip
Видеокодек: Xvid
Битрейт видео: ~1799 kb/s
Размер кадра: 704x528
Аудиокодек: MP3, 2 ch
Битрейт аудио: 128 kb/s
Общее
Полное имя : G:\Мультфильмы\Кругосветное путешествие вместе с Хрюшей и\Кругосветное путешествие вместе с Хрюшей и...(27.serija).2011.XviD.TVRip.avi
Формат : AVI
Формат/Информация : Audio Video Interleave
Размер файла : 140 Мбайт
Продолжительность : 10 м.
Общий поток : 1937 Кбит/сек
Программа кодирования : VirtualDubMod 1.5.10.2 (build 2540/release)
Библиотека кодирования : VirtualDubMod build 2540/release

Видео
Идентификатор : 0
Формат : MPEG-4 Visual
Профиль формата : Advanced Simple@L5
Параметр BVOP формата : 2
Параметр QPel формата : Нет
Параметр GMC формата : Без точки перехода
Параметр матрицы формата : Default (H.263)
Режим смешивания : Сжатый битовый поток
Идентификатор кодека : XVID
Идентификатор кодека/Подсказка : XviD
Продолжительность : 10 м.
Битрейт : 1799 Кбит/сек
Ширина : 704 пикс.
Высота : 528 пикс.
Соотношение сторон : 4:3
Частота кадров : 25,000 кадр/сек
Цветовое пространство : YUV
Подвыборка цветности : 4:2:0
Битовая глубина : 8 бит
Тип развёртки : Прогрессивная
Метод сжатия : С потерями
Бит/(Пиксели*Кадры) : 0.194
Размер потока : 130 Мбайт (93%)
Библиотека кодирования : XviD 58

Аудио
Идентификатор : 1
Формат : MPEG Audio
Версия формата : Version 1
Профиль формата : Layer 3
Режим : Joint stereo
Расширение режима : MS Stereo
Идентификатор кодека : 55
Идентификатор кодека/Подсказка : MP3
Продолжительность : 10 м.
Вид битрейта : Постоянный
Битрейт : 128 Кбит/сек
Канал(ы) : 2 канала(ов)
Частота : 48,0 КГц
Метод сжатия : С потерями
Задержка видео : 168 мс.
Размер потока : 9,28 Мбайт (7%)
Выравнивание : Соединение по промежуткам
Продолжительность промежутка : 40 мс. (1,00 видеокадр)
Время предзагрузки промежутка : 504 ms
Скриншоты:

Серия 28: Мексика

Продолжительность: 00:09:59
Качество видео: TVRip
Видеокодек: Xvid
Битрейт видео: ~1827 kb/s
Размер кадра: 704x528
Аудиокодек: MP3, 2 ch
Битрейт аудио: 128 kb/s
Общее
Полное имя : G:\Мультфильмы\Кругосветное путешествие вместе с Хрюшей и\Кругосветное путешествие вместе с Хрюшей и...(28.serija).2011.XviD.TVRip..avi
Формат : AVI
Формат/Информация : Audio Video Interleave
Размер файла : 140 Мбайт
Продолжительность : 9 м. 59 с.
Общий поток : 1965 Кбит/сек
Программа кодирования : VirtualDubMod 1.5.10.2 (build 2540/release)
Библиотека кодирования : VirtualDubMod build 2540/release

Видео
Идентификатор : 0
Формат : MPEG-4 Visual
Профиль формата : Advanced Simple@L5
Параметр BVOP формата : 2
Параметр QPel формата : Нет
Параметр GMC формата : Без точки перехода
Параметр матрицы формата : Default (H.263)
Режим смешивания : Сжатый битовый поток
Идентификатор кодека : XVID
Идентификатор кодека/Подсказка : XviD
Продолжительность : 9 м. 59 с.
Битрейт : 1827 Кбит/сек
Ширина : 704 пикс.
Высота : 528 пикс.
Соотношение сторон : 4:3
Частота кадров : 25,000 кадр/сек
Цветовое пространство : YUV
Подвыборка цветности : 4:2:0
Битовая глубина : 8 бит
Тип развёртки : Прогрессивная
Метод сжатия : С потерями
Бит/(Пиксели*Кадры) : 0.197
Размер потока : 131 Мбайт (93%)
Библиотека кодирования : XviD 58

Аудио
Идентификатор : 1
Формат : MPEG Audio
Версия формата : Version 1
Профиль формата : Layer 3
Режим : Joint stereo
Расширение режима : MS Stereo
Идентификатор кодека : 55
Идентификатор кодека/Подсказка : MP3
Продолжительность : 9 м. 59 с.
Вид битрейта : Постоянный
Битрейт : 128 Кбит/сек
Канал(ы) : 2 канала(ов)
Частота : 48,0 КГц
Метод сжатия : С потерями
Задержка видео : 168 мс.
Размер потока : 9,15 Мбайт (7%)
Выравнивание : Соединение по промежуткам
Продолжительность промежутка : 40 мс. (1,00 видеокадр)
Время предзагрузки промежутка : 504 ms
Скриншоты:

Серия 29: Тайга

Продолжительность: 00:09:58
Качество видео: TVRip
Видеокодек: Xvid
Битрейт видео: ~1828 kb/s
Размер кадра: 704x528
Аудиокодек: MP3, 2 ch
Битрейт аудио: 128 kb/s
Общее
Полное имя : G:\Мультфильмы\Кругосветное путешествие вместе с Хрюшей и\Кругосветное путешествие вместе с Хрюшей и...(29.serija).2011.XviD.TVRip..avi
Формат : AVI
Формат/Информация : Audio Video Interleave
Размер файла : 140 Мбайт
Продолжительность : 9 м. 58 с.
Общий поток : 1966 Кбит/сек
Программа кодирования : VirtualDubMod 1.5.10.2 (build 2540/release)
Библиотека кодирования : VirtualDubMod build 2540/release

Видео
Идентификатор : 0
Формат : MPEG-4 Visual
Профиль формата : Advanced Simple@L5
Параметр BVOP формата : 2
Параметр QPel формата : Нет
Параметр GMC формата : Без точки перехода
Параметр матрицы формата : Default (H.263)
Режим смешивания : Сжатый битовый поток
Идентификатор кодека : XVID
Идентификатор кодека/Подсказка : XviD
Продолжительность : 9 м. 58 с.
Битрейт : 1828 Кбит/сек
Ширина : 704 пикс.
Высота : 528 пикс.
Соотношение сторон : 4:3
Частота кадров : 25,000 кадр/сек
Цветовое пространство : YUV
Подвыборка цветности : 4:2:0
Битовая глубина : 8 бит
Тип развёртки : Прогрессивная
Метод сжатия : С потерями
Бит/(Пиксели*Кадры) : 0.197
Размер потока : 130 Мбайт (93%)
Библиотека кодирования : XviD 64

Аудио
Идентификатор : 1
Формат : MPEG Audio
Версия формата : Version 1
Профиль формата : Layer 3
Режим : Joint stereo
Расширение режима : MS Stereo
Идентификатор кодека : 55
Идентификатор кодека/Подсказка : MP3
Продолжительность : 9 м. 58 с.
Вид битрейта : Постоянный
Битрейт : 128 Кбит/сек
Канал(ы) : 2 канала(ов)
Частота : 48,0 КГц
Метод сжатия : С потерями
Задержка видео : 168 мс.
Размер потока : 9,14 Мбайт (7%)
Выравнивание : Соединение по промежуткам
Продолжительность промежутка : 40 мс. (1,00 видеокадр)
Время предзагрузки промежутка : 504 ms
Скриншоты:

Серия 30: Якутия

Продолжительность: 00:10:01
Качество видео: TVRip
Видеокодек: Xvid
Битрейт видео: ~1818 kb/s
Размер кадра: 704x528
Аудиокодек: MP3, 2 ch
Битрейт аудио: 128 kb/s
Общее
Полное имя : G:\Мультфильмы\Кругосветное путешествие вместе с Хрюшей и\Кругосветное путешествие вместе с Хрюшей и...(30.serija).2011.XviD.TVRip..avi
Формат : AVI
Формат/Информация : Audio Video Interleave
Размер файла : 140 Мбайт
Продолжительность : 10 м.
Общий поток : 1956 Кбит/сек
Программа кодирования : VirtualDubMod 1.5.10.2 (build 2540/release)
Библиотека кодирования : VirtualDubMod build 2540/release

Видео
Идентификатор : 0
Формат : MPEG-4 Visual
Профиль формата : Advanced Simple@L5
Параметр BVOP формата : 2
Параметр QPel формата : Нет
Параметр GMC формата : Без точки перехода
Параметр матрицы формата : Default (H.263)
Режим смешивания : Сжатый битовый поток
Идентификатор кодека : XVID
Идентификатор кодека/Подсказка : XviD
Продолжительность : 10 м.
Битрейт : 1818 Кбит/сек
Ширина : 704 пикс.
Высота : 528 пикс.
Соотношение сторон : 4:3
Частота кадров : 25,000 кадр/сек
Цветовое пространство : YUV
Подвыборка цветности : 4:2:0
Битовая глубина : 8 бит
Тип развёртки : Прогрессивная
Метод сжатия : С потерями
Бит/(Пиксели*Кадры) : 0.196
Размер потока : 130 Мбайт (93%)
Библиотека кодирования : XviD 64

Аудио
Идентификатор : 1
Формат : MPEG Audio
Версия формата : Version 1
Профиль формата : Layer 3
Режим : Joint stereo
Расширение режима : MS Stereo
Идентификатор кодека : 55
Идентификатор кодека/Подсказка : MP3
Продолжительность : 10 м.
Вид битрейта : Постоянный
Битрейт : 128 Кбит/сек
Канал(ы) : 2 канала(ов)
Частота : 48,0 КГц
Метод сжатия : С потерями
Задержка видео : 168 мс.
Размер потока : 9,18 Мбайт (7%)
Выравнивание : Соединение по промежуткам
Продолжительность промежутка : 40 мс. (1,00 видеокадр)
Время предзагрузки промежутка : 504 ms
Скриншоты:

Серия 31: Заповедники

Продолжительность: 00:09:57
Качество видео: TVRip
Видеокодек: Xvid
Битрейт видео: ~1825 kb/s
Размер кадра: 704x528
Аудиокодек: MP3, 2 ch
Битрейт аудио: 128 kb/s
Общее
Полное имя : G:\Мультфильмы\Кругосветное путешествие вместе с Хрюшей и\Кругосветное путешествие вместе с Хрюшей и...(31.serija).2011.XviD.TVRip..avi
Формат : AVI
Формат/Информация : Audio Video Interleave
Размер файла : 140 Мбайт
Продолжительность : 9 м. 57 с.
Общий поток : 1963 Кбит/сек
Программа кодирования : VirtualDubMod 1.5.10.2 (build 2540/release)
Библиотека кодирования : VirtualDubMod build 2540/release

Видео
Идентификатор : 0
Формат : MPEG-4 Visual
Профиль формата : Advanced Simple@L5
Параметр BVOP формата : 2
Параметр QPel формата : Нет
Параметр GMC формата : Без точки перехода
Параметр матрицы формата : Default (H.263)
Режим смешивания : Сжатый битовый поток
Идентификатор кодека : XVID
Идентификатор кодека/Подсказка : XviD
Продолжительность : 9 м. 57 с.
Битрейт : 1825 Кбит/сек
Ширина : 704 пикс.
Высота : 528 пикс.
Соотношение сторон : 4:3
Частота кадров : 25,000 кадр/сек
Цветовое пространство : YUV
Подвыборка цветности : 4:2:0
Битовая глубина : 8 бит
Тип развёртки : Прогрессивная
Метод сжатия : С потерями
Бит/(Пиксели*Кадры) : 0.196
Размер потока : 130 Мбайт (93%)
Библиотека кодирования : XviD 64

Аудио
Идентификатор : 1
Формат : MPEG Audio
Версия формата : Version 1
Профиль формата : Layer 3
Режим : Joint stereo
Расширение режима : MS Stereo
Идентификатор кодека : 55
Идентификатор кодека/Подсказка : MP3
Продолжительность : 9 м. 57 с.
Вид битрейта : Постоянный
Битрейт : 128 Кбит/сек
Канал(ы) : 2 канала(ов)
Частота : 48,0 КГц
Метод сжатия : С потерями
Задержка видео : 288 мс.
Размер потока : 9,12 Мбайт (7%)
Выравнивание : Соединение по промежуткам
Продолжительность промежутка : 40 мс. (1,00 видеокадр)
Время предзагрузки промежутка : 504 ms
Скриншоты:

Серия 32: Перелетные птицы

Продолжительность: 00:10:06
Качество видео: TVRip
Видеокодек: Xvid
Битрейт видео: ~1800 kb/s
Размер кадра: 704x528
Аудиокодек: MP3, 2 ch
Битрейт аудио: 128 kb/s
Общее
Полное имя : G:\Мультфильмы\Кругосветное путешествие вместе с Хрюшей и\Кругосветное путешествие вместе с Хрюшей и...(32.serija).2011.XviD.TVRip..avi
Формат : AVI
Формат/Информация : Audio Video Interleave
Размер файла : 140 Мбайт
Продолжительность : 10 м.
Общий поток : 1938 Кбит/сек
Программа кодирования : VirtualDubMod 1.5.10.2 (build 2540/release)
Библиотека кодирования : VirtualDubMod build 2540/release

Видео
Идентификатор : 0
Формат : MPEG-4 Visual
Профиль формата : Advanced Simple@L5
Параметр BVOP формата : 2
Параметр QPel формата : Нет
Параметр GMC формата : Без точки перехода
Параметр матрицы формата : Default (H.263)
Режим смешивания : Сжатый битовый поток
Идентификатор кодека : XVID
Идентификатор кодека/Подсказка : XviD
Продолжительность : 10 м.
Битрейт : 1800 Кбит/сек
Ширина : 704 пикс.
Высота : 528 пикс.
Соотношение сторон : 4:3
Частота кадров : 25,000 кадр/сек
Цветовое пространство : YUV
Подвыборка цветности : 4:2:0
Битовая глубина : 8 бит
Тип развёртки : Прогрессивная
Метод сжатия : С потерями
Бит/(Пиксели*Кадры) : 0.194
Размер потока : 130 Мбайт (93%)
Библиотека кодирования : XviD 64

Аудио
Идентификатор : 1
Формат : MPEG Audio
Версия формата : Version 1
Профиль формата : Layer 3
Режим : Joint stereo
Расширение режима : MS Stereo
Идентификатор кодека : 55
Идентификатор кодека/Подсказка : MP3
Продолжительность : 10 м.
Вид битрейта : Постоянный
Битрейт : 128 Кбит/сек
Канал(ы) : 2 канала(ов)
Частота : 48,0 КГц
Метод сжатия : С потерями
Размер потока : 9,25 Мбайт (7%)
Выравнивание : Соединение по промежуткам
Продолжительность промежутка : 40 мс. (1,00 видеокадр)
Время предзагрузки промежутка : 504 ms
Скриншоты:

Серия 33: Китай

Продолжительность: 00:09:58
Качество видео: TVRip
Видеокодек: Xvid
Битрейт видео: ~1829 kb/s
Размер кадра: 704x528
Аудиокодек: MP3, 2 ch
Битрейт аудио: 128 kb/s
Общее
Полное имя : G:\Мультфильмы\Кругосветное путешествие вместе с Хрюшей и\Кругосветное путешествие вместе с Хрюшей и...(33.serija).2011.XviD.TVRip..avi
Формат : AVI
Формат/Информация : Audio Video Interleave
Размер файла : 140 Мбайт
Продолжительность : 9 м. 58 с.
Общий поток : 1966 Кбит/сек
Программа кодирования : VirtualDubMod 1.5.10.2 (build 2540/release)
Библиотека кодирования : VirtualDubMod build 2540/release

Видео
Идентификатор : 0
Формат : MPEG-4 Visual
Профиль формата : Advanced Simple@L5
Параметр BVOP формата : 2
Параметр QPel формата : Нет
Параметр GMC формата : Без точки перехода
Параметр матрицы формата : Default (H.263)
Режим смешивания : Сжатый битовый поток
Идентификатор кодека : XVID
Идентификатор кодека/Подсказка : XviD
Продолжительность : 9 м. 58 с.
Битрейт : 1829 Кбит/сек
Ширина : 704 пикс.
Высота : 528 пикс.
Соотношение сторон : 4:3
Частота кадров : 25,000 кадр/сек
Цветовое пространство : YUV
Подвыборка цветности : 4:2:0
Битовая глубина : 8 бит
Тип развёртки : Прогрессивная
Метод сжатия : С потерями
Бит/(Пиксели*Кадры) : 0.197
Размер потока : 130 Мбайт (93%)
Библиотека кодирования : XviD 64

Аудио
Идентификатор : 1
Формат : MPEG Audio
Версия формата : Version 1
Профиль формата : Layer 3
Режим : Joint stereo
Расширение режима : MS Stereo
Идентификатор кодека : 55
Идентификатор кодека/Подсказка : MP3
Продолжительность : 9 м. 58 с.
Вид битрейта : Постоянный
Битрейт : 128 Кбит/сек
Канал(ы) : 2 канала(ов)
Частота : 48,0 КГц
Метод сжатия : С потерями
Размер потока : 9,13 Мбайт (7%)
Выравнивание : Соединение по промежуткам
Продолжительность промежутка : 40 мс. (1,00 видеокадр)
Время предзагрузки промежутка : 504 ms
Скриншоты:

Серия 34:Япония

Продолжительность: 00:10:00
Качество видео: TVRip
Видеокодек: Xvid
Битрейт видео: ~1824 kb/s
Размер кадра: 704x528
Аудиокодек: MP3, 2 ch
Битрейт аудио: 128 kb/s
Общее
Полное имя : G:\Мультфильмы\Кругосветное путешествие вместе с Хрюшей и\Кругосветное путешествие вместе с Хрюшей и...(34.serija).2011.XviD.TVRip..avi
Формат : AVI
Формат/Информация : Audio Video Interleave
Размер файла : 140 Мбайт
Продолжительность : 10 м.
Общий поток : 1962 Кбит/сек
Программа кодирования : VirtualDubMod 1.5.10.2 (build 2540/release)
Библиотека кодирования : VirtualDubMod build 2540/release

Видео
Идентификатор : 0
Формат : MPEG-4 Visual
Профиль формата : Advanced Simple@L5
Параметр BVOP формата : 2
Параметр QPel формата : Нет
Параметр GMC формата : Без точки перехода
Параметр матрицы формата : Default (H.263)
Режим смешивания : Сжатый битовый поток
Идентификатор кодека : XVID
Идентификатор кодека/Подсказка : XviD
Продолжительность : 10 м.
Битрейт : 1824 Кбит/сек
Ширина : 704 пикс.
Высота : 528 пикс.
Соотношение сторон : 4:3
Частота кадров : 25,000 кадр/сек
Цветовое пространство : YUV
Подвыборка цветности : 4:2:0
Битовая глубина : 8 бит
Тип развёртки : Прогрессивная
Метод сжатия : С потерями
Бит/(Пиксели*Кадры) : 0.196
Размер потока : 130 Мбайт (93%)
Библиотека кодирования : XviD 64

Аудио
Идентификатор : 1
Формат : MPEG Audio
Версия формата : Version 1
Профиль формата : Layer 3
Режим : Joint stereo
Расширение режима : MS Stereo
Идентификатор кодека : 55
Идентификатор кодека/Подсказка : MP3
Продолжительность : 10 м.
Вид битрейта : Постоянный
Битрейт : 128 Кбит/сек
Канал(ы) : 2 канала(ов)
Частота : 48,0 КГц
Метод сжатия : С потерями
Размер потока : 9,16 Мбайт (7%)
Выравнивание : Соединение по промежуткам
Продолжительность промежутка : 40 мс. (1,00 видеокадр)
Время предзагрузки промежутка : 504 ms
Скриншоты:

Серия 35: Ледники

Продолжительность: 00:09:58
Качество видео: TVRip
Видеокодек: Xvid
Битрейт видео: ~1828 kb/s
Размер кадра: 704x528
Аудиокодек: MP3, 2 ch
Битрейт аудио: 128 kb/s
Общее
Полное имя : G:\Мультфильмы\Кругосветное путешествие вместе с Хрюшей и\Кругосветное путешествие вместе с Хрюшей и...(35.serija).2011.XviD.TVRip.avi
Формат : AVI
Формат/Информация : Audio Video Interleave
Размер файла : 140 Мбайт
Продолжительность : 9 м. 58 с.
Общий поток : 1966 Кбит/сек
Программа кодирования : VirtualDubMod 1.5.10.2 (build 2540/release)
Библиотека кодирования : VirtualDubMod build 2540/release

Видео
Идентификатор : 0
Формат : MPEG-4 Visual
Профиль формата : Advanced Simple@L5
Параметр BVOP формата : 2
Параметр QPel формата : Нет
Параметр GMC формата : Без точки перехода
Параметр матрицы формата : Default (H.263)
Режим смешивания : Сжатый битовый поток
Идентификатор кодека : XVID
Идентификатор кодека/Подсказка : XviD
Продолжительность : 9 м. 58 с.
Битрейт : 1828 Кбит/сек
Ширина : 704 пикс.
Высота : 528 пикс.
Соотношение сторон : 4:3
Частота кадров : 25,000 кадр/сек
Цветовое пространство : YUV
Подвыборка цветности : 4:2:0
Битовая глубина : 8 бит
Тип развёртки : Прогрессивная
Метод сжатия : С потерями
Бит/(Пиксели*Кадры) : 0.197
Размер потока : 131 Мбайт (93%)
Библиотека кодирования : XviD 64

Аудио
Идентификатор : 1
Формат : MPEG Audio
Версия формата : Version 1
Профиль формата : Layer 3
Режим : Joint stereo
Расширение режима : MS Stereo
Идентификатор кодека : 55
Идентификатор кодека/Подсказка : MP3
Продолжительность : 9 м. 58 с.
Вид битрейта : Постоянный
Битрейт : 128 Кбит/сек
Канал(ы) : 2 канала(ов)
Частота : 48,0 КГц
Метод сжатия : С потерями
Размер потока : 9,14 Мбайт (7%)
Выравнивание : Соединение по промежуткам
Продолжительность промежутка : 40 мс. (1,00 видеокадр)
Время предзагрузки промежутка : 504 ms
Скриншоты:

Серия 36: Приморский край

Продолжительность: 00:10:04
Качество видео: TVRip
Видеокодек: Xvid
Битрейт видео: ~1811 kb/s
Размер кадра: 704x528
Аудиокодек: MP3, 2 ch
Битрейт аудио: 128 kb/s
Общее
Полное имя : G:\Мультфильмы\Кругосветное путешествие вместе с Хрюшей и\Кругосветное путешествие вместе с Хрюшей и...(36.serija).2011.XviD.TVRip..avi
Формат : AVI
Формат/Информация : Audio Video Interleave
Размер файла : 140 Мбайт
Продолжительность : 10 м.
Общий поток : 1948 Кбит/сек
Программа кодирования : VirtualDubMod 1.5.10.2 (build 2540/release)
Библиотека кодирования : VirtualDubMod build 2540/release

Видео
Идентификатор : 0
Формат : MPEG-4 Visual
Профиль формата : Advanced Simple@L5
Параметр BVOP формата : 2
Параметр QPel формата : Нет
Параметр GMC формата : Без точки перехода
Параметр матрицы формата : Default (H.263)
Режим смешивания : Сжатый битовый поток
Идентификатор кодека : XVID
Идентификатор кодека/Подсказка : XviD
Продолжительность : 10 м.
Битрейт : 1811 Кбит/сек
Ширина : 704 пикс.
Высота : 528 пикс.
Соотношение сторон : 4:3
Частота кадров : 25,000 кадр/сек
Цветовое пространство : YUV
Подвыборка цветности : 4:2:0
Битовая глубина : 8 бит
Тип развёртки : Прогрессивная
Метод сжатия : С потерями
Бит/(Пиксели*Кадры) : 0.195
Размер потока : 130 Мбайт (93%)
Библиотека кодирования : XviD 64

Аудио
Идентификатор : 1
Формат : MPEG Audio
Версия формата : Version 1
Профиль формата : Layer 3
Режим : Joint stereo
Расширение режима : MS Stereo
Идентификатор кодека : 55
Идентификатор кодека/Подсказка : MP3
Продолжительность : 10 м.
Вид битрейта : Постоянный
Битрейт : 128 Кбит/сек
Канал(ы) : 2 канала(ов)
Частота : 48,0 КГц
Метод сжатия : С потерями
Размер потока : 9,22 Мбайт (7%)
Выравнивание : Соединение по промежуткам
Продолжительность промежутка : 40 мс. (1,00 видеокадр)
Время предзагрузки промежутка : 504 ms
Скриншоты:

Серия 37: Италия

Продолжительность: 00:09:58
Качество видео: TVRip
Видеокодек: Xvid
Битрейт видео: ~1828 kb/s
Размер кадра: 704x528
Аудиокодек: MP3, 2 ch
Битрейт аудио: 128 kb/s
Общее
Полное имя : G:\Мультфильмы\Кругосветное путешествие вместе с Хрюшей и\Кругосветное путешествие вместе с Хрюшей и...(37.serija).2011.XviD.TVRip..avi
Формат : AVI
Формат/Информация : Audio Video Interleave
Размер файла : 140 Мбайт
Продолжительность : 9 м. 58 с.
Общий поток : 1966 Кбит/сек
Программа кодирования : VirtualDubMod 1.5.10.2 (build 2540/release)
Библиотека кодирования : VirtualDubMod build 2540/release

Видео
Идентификатор : 0
Формат : MPEG-4 Visual
Профиль формата : Advanced Simple@L5
Параметр BVOP формата : 2
Параметр QPel формата : Нет
Параметр GMC формата : Без точки перехода
Параметр матрицы формата : Default (H.263)
Режим смешивания : Сжатый битовый поток
Идентификатор кодека : XVID
Идентификатор кодека/Подсказка : XviD
Продолжительность : 9 м. 58 с.
Битрейт : 1828 Кбит/сек
Ширина : 704 пикс.
Высота : 528 пикс.
Соотношение сторон : 4:3
Частота кадров : 25,000 кадр/сек
Цветовое пространство : YUV
Подвыборка цветности : 4:2:0
Битовая глубина : 8 бит
Тип развёртки : Прогрессивная
Метод сжатия : С потерями
Бит/(Пиксели*Кадры) : 0.197
Размер потока : 131 Мбайт (93%)
Библиотека кодирования : XviD 64

Аудио
Идентификатор : 1
Формат : MPEG Audio
Версия формата : Version 1
Профиль формата : Layer 3
Режим : Joint stereo
Расширение режима : MS Stereo
Идентификатор кодека : 55
Идентификатор кодека/Подсказка : MP3
Продолжительность : 9 м. 58 с.
Вид битрейта : Постоянный
Битрейт : 128 Кбит/сек
Канал(ы) : 2 канала(ов)
Частота : 48,0 КГц
Метод сжатия : С потерями
Размер потока : 9,14 Мбайт (7%)
Выравнивание : Соединение по промежуткам
Продолжительность промежутка : 40 мс. (1,00 видеокадр)
Время предзагрузки промежутка : 504 ms
Скриншоты:



Серия 38: Географические координаты

Продолжительность: 00:10:03
Качество видео: TVRip
Видеокодек: Xvid
Битрейт видео: ~1809 kb/s
Размер кадра: 704x528
Аудиокодек: MP3, 2 ch
Битрейт аудио: 128 kb/s
Общее
Полное имя : G:\Мультфильмы\Кругосветное путешествие вместе с Хрюшей и\Кругосветное путешествие вместе с Хрюшей и...(38.serija).2011.XviD.TVRip..avi
Формат : AVI
Формат/Информация : Audio Video Interleave
Размер файла : 140 Мбайт
Продолжительность : 10 м.
Общий поток : 1947 Кбит/сек
Программа кодирования : VirtualDubMod 1.5.10.2 (build 2540/release)
Библиотека кодирования : VirtualDubMod build 2540/release

Видео
Идентификатор : 0
Формат : MPEG-4 Visual
Профиль формата : Advanced Simple@L5
Параметр BVOP формата : 2
Параметр QPel формата : Нет
Параметр GMC формата : Без точки перехода
Параметр матрицы формата : Default (H.263)
Режим смешивания : Сжатый битовый поток
Идентификатор кодека : XVID
Идентификатор кодека/Подсказка : XviD
Продолжительность : 10 м.
Битрейт : 1809 Кбит/сек
Ширина : 704 пикс.
Высота : 528 пикс.
Соотношение сторон : 4:3
Частота кадров : 25,000 кадр/сек
Цветовое пространство : YUV
Подвыборка цветности : 4:2:0
Битовая глубина : 8 бит
Тип развёртки : Прогрессивная
Метод сжатия : С потерями
Бит/(Пиксели*Кадры) : 0.195
Размер потока : 130 Мбайт (93%)
Библиотека кодирования : XviD 64

Аудио
Идентификатор : 1
Формат : MPEG Audio
Версия формата : Version 1
Профиль формата : Layer 3
Режим : Joint stereo
Расширение режима : MS Stereo
Идентификатор кодека : 55
Идентификатор кодека/Подсказка : MP3
Продолжительность : 10 м.
Вид битрейта : Постоянный
Битрейт : 128 Кбит/сек
Канал(ы) : 2 канала(ов)
Частота : 48,0 КГц
Метод сжатия : С потерями
Размер потока : 9,20 Мбайт (7%)
Выравнивание : Соединение по промежуткам
Продолжительность промежутка : 40 мс. (1,00 видеокадр)
Время предзагрузки промежутка : 504 ms
Скриншоты:



Серия 39: Первооткрыватели Арктики

Продолжительность: 00:09:57
Качество видео: TVRip
Видеокодек: Xvid
Битрейт видео: ~1830 kb/s
Размер кадра: 704x528
Аудиокодек: MP3, 2 ch
Битрейт аудио: 128 kb/s
Общее
Полное имя : G:\Мультфильмы\Кругосветное путешествие вместе с Хрюшей и\Кругосветное путешествие вместе с Хрюшей и...(39.serija).2011.XviD.TVRip..avi
Формат : AVI
Формат/Информация : Audio Video Interleave
Размер файла : 140 Мбайт
Продолжительность : 9 м. 57 с.
Общий поток : 1967 Кбит/сек
Программа кодирования : VirtualDubMod 1.5.10.2 (build 2540/release)
Библиотека кодирования : VirtualDubMod build 2540/release

Видео
Идентификатор : 0
Формат : MPEG-4 Visual
Профиль формата : Advanced Simple@L5
Параметр BVOP формата : 2
Параметр QPel формата : Нет
Параметр GMC формата : Без точки перехода
Параметр матрицы формата : Default (H.263)
Режим смешивания : Сжатый битовый поток
Идентификатор кодека : XVID
Идентификатор кодека/Подсказка : XviD
Продолжительность : 9 м. 57 с.
Битрейт : 1830 Кбит/сек
Ширина : 704 пикс.
Высота : 528 пикс.
Соотношение сторон : 4:3
Частота кадров : 25,000 кадр/сек
Цветовое пространство : YUV
Подвыборка цветности : 4:2:0
Битовая глубина : 8 бит
Тип развёртки : Прогрессивная
Метод сжатия : С потерями
Бит/(Пиксели*Кадры) : 0.197
Размер потока : 130 Мбайт (93%)
Библиотека кодирования : XviD 64

Аудио
Идентификатор : 1
Формат : MPEG Audio
Версия формата : Version 1
Профиль формата : Layer 3
Режим : Joint stereo
Расширение режима : MS Stereo
Идентификатор кодека : 55
Идентификатор кодека/Подсказка : MP3
Продолжительность : 9 м. 57 с.
Вид битрейта : Постоянный
Битрейт : 128 Кбит/сек
Канал(ы) : 2 канала(ов)
Частота : 48,0 КГц
Метод сжатия : С потерями
Размер потока : 9,11 Мбайт (7%)
Выравнивание : Соединение по промежуткам
Продолжительность промежутка : 40 мс. (1,00 видеокадр)
Время предзагрузки промежутка : 504 ms
Скриншоты:



Серия 40: Гренландия

Продолжительность: 00:10:00
Качество видео: TVRip
Видеокодек: Xvid
Битрейт видео: ~1822 kb/s
Размер кадра: 704x528
Аудиокодек: MP3, 2 ch
Битрейт аудио: 128 kb/s
Общее
Полное имя : G:\Мультфильмы\Кругосветное путешествие вместе с Хрюшей и\Кругосветное путешествие вместе с Хрюшей и...(40.serija).2011.XviD.TVRip..avi
Формат : AVI
Формат/Информация : Audio Video Interleave
Размер файла : 140 Мбайт
Продолжительность : 10 м.
Общий поток : 1960 Кбит/сек
Программа кодирования : VirtualDubMod 1.5.10.2 (build 2540/release)
Библиотека кодирования : VirtualDubMod build 2540/release

Видео
Идентификатор : 0
Формат : MPEG-4 Visual
Профиль формата : Advanced Simple@L5
Параметр BVOP формата : 2
Параметр QPel формата : Нет
Параметр GMC формата : Без точки перехода
Параметр матрицы формата : Default (H.263)
Режим смешивания : Сжатый битовый поток
Идентификатор кодека : XVID
Идентификатор кодека/Подсказка : XviD
Продолжительность : 10 м.
Битрейт : 1822 Кбит/сек
Ширина : 704 пикс.
Высота : 528 пикс.
Соотношение сторон : 4:3
Частота кадров : 25,000 кадр/сек
Цветовое пространство : YUV
Подвыборка цветности : 4:2:0
Битовая глубина : 8 бит
Тип развёртки : Прогрессивная
Метод сжатия : С потерями
Бит/(Пиксели*Кадры) : 0.196
Размер потока : 130 Мбайт (93%)
Библиотека кодирования : XviD 64

Аудио
Идентификатор : 1
Формат : MPEG Audio
Версия формата : Version 1
Профиль формата : Layer 3
Режим : Joint stereo
Расширение режима : MS Stereo
Идентификатор кодека : 55
Идентификатор кодека/Подсказка : MP3
Продолжительность : 10 м.
Вид битрейта : Постоянный
Битрейт : 128 Кбит/сек
Канал(ы) : 2 канала(ов)
Частота : 48,0 КГц
Метод сжатия : С потерями
Размер потока : 9,16 Мбайт (7%)
Выравнивание : Соединение по промежуткам
Продолжительность промежутка : 40 мс. (1,00 видеокадр)
Время предзагрузки промежутка : 504 ms
Скриншоты:



Серия 41: Заливы и проливы

Продолжительность: 00:09:54
Качество видео: TVRip
Видеокодек: Xvid
Битрейт видео: ~1826 kb/s
Размер кадра: 704x528
Аудиокодек: MP3, 2 ch
Битрейт аудио: 128 kb/s
Общее
Полное имя : G:\Мультфильмы\Кругосветное путешествие вместе с Хрюшей и\Кругосветное путешествие вместе с Хрюшей и...(41.serija).2011.XviD.TVRip..avi
Формат : AVI
Формат/Информация : Audio Video Interleave
Размер файла : 139 Мбайт
Продолжительность : 9 м. 54 с.
Общий поток : 1964 Кбит/сек
Программа кодирования : VirtualDubMod 1.5.10.2 (build 2540/release)
Библиотека кодирования : VirtualDubMod build 2540/release

Видео
Идентификатор : 0
Формат : MPEG-4 Visual
Профиль формата : Advanced Simple@L5
Параметр BVOP формата : 2
Параметр QPel формата : Нет
Параметр GMC формата : Без точки перехода
Параметр матрицы формата : Default (H.263)
Режим смешивания : Сжатый битовый поток
Идентификатор кодека : XVID
Идентификатор кодека/Подсказка : XviD
Продолжительность : 9 м. 54 с.
Битрейт : 1826 Кбит/сек
Ширина : 704 пикс.
Высота : 528 пикс.
Соотношение сторон : 4:3
Частота кадров : 25,000 кадр/сек
Цветовое пространство : YUV
Подвыборка цветности : 4:2:0
Битовая глубина : 8 бит
Тип развёртки : Прогрессивная
Метод сжатия : С потерями
Бит/(Пиксели*Кадры) : 0.197
Размер потока : 130 Мбайт (93%)
Библиотека кодирования : XviD 64

Аудио
Идентификатор : 1
Формат : MPEG Audio
Версия формата : Version 1
Профиль формата : Layer 3
Режим : Joint stereo
Расширение режима : MS Stereo
Идентификатор кодека : 55
Идентификатор кодека/Подсказка : MP3
Продолжительность : 9 м. 54 с.
Вид битрейта : Постоянный
Битрейт : 128 Кбит/сек
Канал(ы) : 2 канала(ов)
Частота : 48,0 КГц
Метод сжатия : С потерями
Размер потока : 9,08 Мбайт (7%)
Выравнивание : Соединение по промежуткам
Продолжительность промежутка : 40 мс. (1,00 видеокадр)
Время предзагрузки промежутка : 504 ms
Скриншоты:



Серия 42: Древняя Греция

Продолжительность: 00:10:00
Качество видео: TVRip
Видеокодек: Xvid
Битрейт видео: ~1822 kb/s
Размер кадра: 704x528
Аудиокодек: MP3, 2 ch
Битрейт аудио: 128 kb/s
Общее
Полное имя : G:\Мультфильмы\Кругосветное путешествие вместе с Хрюшей и\Кругосветное путешествие вместе с Хрюшей и...(42.serija).2011.XviD.TVRip.avi
Формат : AVI
Формат/Информация : Audio Video Interleave
Размер файла : 140 Мбайт
Продолжительность : 10 м.
Общий поток : 1960 Кбит/сек
Программа кодирования : VirtualDubMod 1.5.10.2 (build 2540/release)
Библиотека кодирования : VirtualDubMod build 2540/release

Видео
Идентификатор : 0
Формат : MPEG-4 Visual
Профиль формата : Advanced Simple@L5
Параметр BVOP формата : 2
Параметр QPel формата : Нет
Параметр GMC формата : Без точки перехода
Параметр матрицы формата : Default (H.263)
Режим смешивания : Сжатый битовый поток
Идентификатор кодека : XVID
Идентификатор кодека/Подсказка : XviD
Продолжительность : 10 м.
Битрейт : 1822 Кбит/сек
Ширина : 704 пикс.
Высота : 528 пикс.
Соотношение сторон : 4:3
Частота кадров : 25,000 кадр/сек
Цветовое пространство : YUV
Подвыборка цветности : 4:2:0
Битовая глубина : 8 бит
Тип развёртки : Прогрессивная
Метод сжатия : С потерями
Бит/(Пиксели*Кадры) : 0.196
Размер потока : 130 Мбайт (93%)
Библиотека кодирования : XviD 64

Аудио
Идентификатор : 1
Формат : MPEG Audio
Версия формата : Version 1
Профиль формата : Layer 3
Режим : Joint stereo
Расширение режима : MS Stereo
Идентификатор кодека : 55
Идентификатор кодека/Подсказка : MP3
Продолжительность : 10 м.
Вид битрейта : Постоянный
Битрейт : 128 Кбит/сек
Канал(ы) : 2 канала(ов)
Частота : 48,0 КГц
Метод сжатия : С потерями
Размер потока : 9,16 Мбайт (7%)
Выравнивание : Соединение по промежуткам
Продолжительность промежутка : 40 мс. (1,00 видеокадр)
Время предзагрузки промежутка : 504 ms
Скриншоты:



Серия 43: Чей дом лучше

Продолжительность: 00:10:03
Качество видео: TVRip
Видеокодек: Xvid
Битрейт видео: ~1815 kb/s
Размер кадра: 704x528
Аудиокодек: MP3, 2 ch
Битрейт аудио: 128 kb/s
Общее
Полное имя : G:\Мультфильмы\Кругосветное путешествие вместе с Хрюшей и\Кругосветное путешествие вместе с Хрюшей и...(43.serija).2011.XviD.TVRip..avi
Формат : AVI
Формат/Информация : Audio Video Interleave
Размер файла : 140 Мбайт
Продолжительность : 10 м.
Общий поток : 1952 Кбит/сек
Программа кодирования : VirtualDubMod 1.5.10.2 (build 2540/release)
Библиотека кодирования : VirtualDubMod build 2540/release

Видео
Идентификатор : 0
Формат : MPEG-4 Visual
Профиль формата : Advanced Simple@L5
Параметр BVOP формата : 2
Параметр QPel формата : Нет
Параметр GMC формата : Без точки перехода
Параметр матрицы формата : Default (H.263)
Режим смешивания : Сжатый битовый поток
Идентификатор кодека : XVID
Идентификатор кодека/Подсказка : XviD
Продолжительность : 10 м.
Битрейт : 1815 Кбит/сек
Ширина : 704 пикс.
Высота : 528 пикс.
Соотношение сторон : 4:3
Частота кадров : 25,000 кадр/сек
Цветовое пространство : YUV
Подвыборка цветности : 4:2:0
Битовая глубина : 8 бит
Тип развёртки : Прогрессивная
Метод сжатия : С потерями
Бит/(Пиксели*Кадры) : 0.195
Размер потока : 130 Мбайт (93%)
Библиотека кодирования : XviD 64

Аудио
Идентификатор : 1
Формат : MPEG Audio
Версия формата : Version 1
Профиль формата : Layer 3
Режим : Joint stereo
Расширение режима : MS Stereo
Идентификатор кодека : 55
Идентификатор кодека/Подсказка : MP3
Продолжительность : 10 м.
Вид битрейта : Постоянный
Битрейт : 128 Кбит/сек
Канал(ы) : 2 канала(ов)
Частота : 48,0 КГц
Метод сжатия : С потерями
Размер потока : 9,20 Мбайт (7%)
Выравнивание : Соединение по промежуткам
Продолжительность промежутка : 40 мс. (1,00 видеокадр)
Время предзагрузки промежутка : 504 ms
Скриншоты:



Серия 44: Достопримечательности

Продолжительность: 00:10:03
Качество видео: TVRip
Видеокодек: Xvid
Битрейт видео: ~1812 kb/s
Размер кадра: 704x528
Аудиокодек: MP3, 2 ch
Битрейт аудио: 128 kb/s
Общее
Полное имя : G:\Мультфильмы\Кругосветное путешествие вместе с Хрюшей и\Кругосветное путешествие вместе с Хрюшей и...(44.serija).2011.XviD.TVRip.avi
Формат : AVI
Формат/Информация : Audio Video Interleave
Размер файла : 140 Мбайт
Продолжительность : 10 м.
Общий поток : 1950 Кбит/сек
Программа кодирования : VirtualDubMod 1.5.10.2 (build 2540/release)
Библиотека кодирования : VirtualDubMod build 2540/release

Видео
Идентификатор : 0
Формат : MPEG-4 Visual
Профиль формата : Advanced Simple@L5
Параметр BVOP формата : 2
Параметр QPel формата : Нет
Параметр GMC формата : Без точки перехода
Параметр матрицы формата : Default (H.263)
Режим смешивания : Сжатый битовый поток
Идентификатор кодека : XVID
Идентификатор кодека/Подсказка : XviD
Продолжительность : 10 м.
Битрейт : 1812 Кбит/сек
Ширина : 704 пикс.
Высота : 528 пикс.
Соотношение сторон : 4:3
Частота кадров : 25,000 кадр/сек
Цветовое пространство : YUV
Подвыборка цветности : 4:2:0
Битовая глубина : 8 бит
Тип развёртки : Прогрессивная
Метод сжатия : С потерями
Бит/(Пиксели*Кадры) : 0.195
Размер потока : 130 Мбайт (93%)
Библиотека кодирования : XviD 64

Аудио
Идентификатор : 1
Формат : MPEG Audio
Версия формата : Version 1
Профиль формата : Layer 3
Режим : Joint stereo
Расширение режима : MS Stereo
Идентификатор кодека : 55
Идентификатор кодека/Подсказка : MP3
Продолжительность : 10 м.
Вид битрейта : Постоянный
Битрейт : 128 Кбит/сек
Канал(ы) : 2 канала(ов)
Частота : 48,0 КГц
Метод сжатия : С потерями
Размер потока : 9,21 Мбайт (7%)
Выравнивание : Соединение по промежуткам
Продолжительность промежутка : 40 мс. (1,00 видеокадр)
Время предзагрузки промежутка : 504 ms
Скриншоты:



Серия 45: Герб и флаг России

Продолжительность: 00:10:00
Качество видео: TVRip
Видеокодек: Xvid
Битрейт видео: ~1824 kb/s
Размер кадра: 704x528
Аудиокодек: MP3, 2 ch
Битрейт аудио: 128 kb/s
Общее
Полное имя : G:\Мультфильмы\Кругосветное путешествие вместе с Хрюшей и\Кругосветное путешествие вместе с Хрюшей и...(45.serija).2011.XviD.TVRip..avi
Формат : AVI
Формат/Информация : Audio Video Interleave
Размер файла : 140 Мбайт
Продолжительность : 10 м.
Общий поток : 1962 Кбит/сек
Программа кодирования : VirtualDubMod 1.5.10.2 (build 2540/release)
Библиотека кодирования : VirtualDubMod build 2540/release

Видео
Идентификатор : 0
Формат : MPEG-4 Visual
Профиль формата : Advanced Simple@L5
Параметр BVOP формата : 2
Параметр QPel формата : Нет
Параметр GMC формата : Без точки перехода
Параметр матрицы формата : Default (H.263)
Режим смешивания : Сжатый битовый поток
Идентификатор кодека : XVID
Идентификатор кодека/Подсказка : XviD
Продолжительность : 10 м.
Битрейт : 1824 Кбит/сек
Ширина : 704 пикс.
Высота : 528 пикс.
Соотношение сторон : 4:3
Частота кадров : 25,000 кадр/сек
Цветовое пространство : YUV
Подвыборка цветности : 4:2:0
Битовая глубина : 8 бит
Тип развёртки : Прогрессивная
Метод сжатия : С потерями
Бит/(Пиксели*Кадры) : 0.196
Размер потока : 130 Мбайт (93%)
Библиотека кодирования : XviD 64

Аудио
Идентификатор : 1
Формат : MPEG Audio
Версия формата : Version 1
Профиль формата : Layer 3
Режим : Joint stereo
Расширение режима : MS Stereo
Идентификатор кодека : 55
Идентификатор кодека/Подсказка : MP3
Продолжительность : 9 м. 59 с.
Вид битрейта : Постоянный
Битрейт : 128 Кбит/сек
Канал(ы) : 2 канала(ов)
Частота : 48,0 КГц
Метод сжатия : С потерями
Размер потока : 9,15 Мбайт (7%)
Выравнивание : Соединение по промежуткам
Продолжительность промежутка : 40 мс. (1,00 видеокадр)
Время предзагрузки промежутка : 504 ms
Скриншоты:



Серия 46: Калининградская область

Продолжительность: 00:10:02
Качество видео: TVRip
Видеокодек: Xvid
Битрейт видео: ~1817 kb/s
Размер кадра: 704x528
Аудиокодек: MP3, 2 ch
Битрейт аудио: 128 kb/s
Общее
Полное имя : G:\Мультфильмы\Кругосветное путешествие вместе с Хрюшей и\Кругосветное путешествие вместе с Хрюшей и...(46.serija).2011.XviD.TVRip..avi
Формат : AVI
Формат/Информация : Audio Video Interleave
Размер файла : 140 Мбайт
Продолжительность : 10 м.
Общий поток : 1955 Кбит/сек
Программа кодирования : VirtualDubMod 1.5.10.2 (build 2540/release)
Библиотека кодирования : VirtualDubMod build 2540/release

Видео
Идентификатор : 0
Формат : MPEG-4 Visual
Профиль формата : Advanced Simple@L5
Параметр BVOP формата : 2
Параметр QPel формата : Нет
Параметр GMC формата : Без точки перехода
Параметр матрицы формата : Default (H.263)
Режим смешивания : Сжатый битовый поток
Идентификатор кодека : XVID
Идентификатор кодека/Подсказка : XviD
Продолжительность : 10 м.
Битрейт : 1817 Кбит/сек
Ширина : 704 пикс.
Высота : 528 пикс.
Соотношение сторон : 4:3
Частота кадров : 25,000 кадр/сек
Цветовое пространство : YUV
Подвыборка цветности : 4:2:0
Битовая глубина : 8 бит
Тип развёртки : Прогрессивная
Метод сжатия : С потерями
Бит/(Пиксели*Кадры) : 0.195
Размер потока : 130 Мбайт (93%)
Библиотека кодирования : XviD 64

Аудио
Идентификатор : 1
Формат : MPEG Audio
Версия формата : Version 1
Профиль формата : Layer 3
Режим : Joint stereo
Расширение режима : MS Stereo
Идентификатор кодека : 55
Идентификатор кодека/Подсказка : MP3
Продолжительность : 10 м.
Вид битрейта : Постоянный
Битрейт : 128 Кбит/сек
Канал(ы) : 2 канала(ов)
Частота : 48,0 КГц
Метод сжатия : С потерями
Размер потока : 9,19 Мбайт (7%)
Выравнивание : Соединение по промежуткам
Продолжительность промежутка : 40 мс. (1,00 видеокадр)
Время предзагрузки промежутка : 504 ms
Скриншоты:



Серия 47: Географический центр России

Продолжительность: 00:09:54
Качество видео: TVRip
Видеокодек: Xvid
Битрейт видео: ~1909 kb/s
Размер кадра: 704x528
Аудиокодек: MP3, 2 ch
Битрейт аудио: 128 kb/s
Общее
Полное имя : G:\Мультфильмы\Кругосветное путешествие вместе с Хрюшей и\Кругосветное путешествие вместе с Хрюшей и...(47.serija).2011.XviD.TVRip.avi
Формат : AVI
Формат/Информация : Audio Video Interleave
Размер файла : 145 Мбайт
Продолжительность : 9 м. 54 с.
Общий поток : 2046 Кбит/сек
Программа кодирования : VirtualDubMod 1.5.10.2 (build 2540/release)
Библиотека кодирования : VirtualDubMod build 2540/release

Видео
Идентификатор : 0
Формат : MPEG-4 Visual
Профиль формата : Advanced Simple@L5
Параметр BVOP формата : 2
Параметр QPel формата : Нет
Параметр GMC формата : Без точки перехода
Параметр матрицы формата : Default (H.263)
Режим смешивания : Сжатый битовый поток
Идентификатор кодека : XVID
Идентификатор кодека/Подсказка : XviD
Продолжительность : 9 м. 54 с.
Битрейт : 1909 Кбит/сек
Ширина : 704 пикс.
Высота : 528 пикс.
Соотношение сторон : 4:3
Частота кадров : 25,000 кадр/сек
Цветовое пространство : YUV
Подвыборка цветности : 4:2:0
Битовая глубина : 8 бит
Тип развёртки : Прогрессивная
Метод сжатия : С потерями
Бит/(Пиксели*Кадры) : 0.205
Размер потока : 135 Мбайт (93%)
Библиотека кодирования : XviD 64

Аудио
Идентификатор : 1
Формат : MPEG Audio
Версия формата : Version 1
Профиль формата : Layer 3
Режим : Joint stereo
Расширение режима : MS Stereo
Идентификатор кодека : 55
Идентификатор кодека/Подсказка : MP3
Продолжительность : 9 м. 54 с.
Вид битрейта : Постоянный
Битрейт : 128 Кбит/сек
Канал(ы) : 2 канала(ов)
Частота : 48,0 КГц
Метод сжатия : С потерями
Размер потока : 9,07 Мбайт (6%)
Выравнивание : Соединение по промежуткам
Продолжительность промежутка : 40 мс. (1,00 видеокадр)
Время предзагрузки промежутка : 504 ms
Скриншоты:


Скриншоты:




Внимание ! Раздача ведётся путём добавления новых серий
[NNM-Club.ru]_Krugosvetnoe puteshestvie vmeste s Hryushey i.torrent
 Торрент: Платиновая раздача  Зарегистрирован
 
Скачать


 Зарегистрирован:   01 Янв 2012 20:41:10
 Размер:   6,41 GB  (
 Рейтинг:   4,7 (Голосов: 98)
 Поблагодарили:   367
 Проверка:   Оформление проверено модератором 01 Янв 2012 20:45:29
Как cкачать  ·  Как раздать  ·  Правильно оформить  ·  Поднять ратио!  
эксклюзив ®
Стаж: 8 лет 7 мес.
Сообщений: 1169
Ratio: 159,795
Поблагодарили: 75094
100%
Торрент обновлен
Добавлена 41 серия

_________________
Жизнь дает много тем для размышлений, но мало времени.
rip77147
Стаж: 8 лет 5 мес.
Сообщений: 6
Ratio: 4,789
2.8%
angola.gif
модераторы зарегистрируйте торрент плиз!!!!! снова не качается
Гуверняня
Стаж: 8 лет 3 мес.
Сообщений: 9
Ratio: 6,551
Раздал: 161 GB
Поблагодарили: 1
94.85%
:цветок:
эксклюзив ®
Стаж: 8 лет 7 мес.
Сообщений: 1169
Ratio: 159,795
Поблагодарили: 75094
100%
Торрент обновлен
Добавлены 42-44 серии

_________________
Жизнь дает много тем для размышлений, но мало времени.
irochkatambov
Стаж: 8 лет 8 мес.
Сообщений: 1
Ratio: 11,821
100%
russia.gif
Большущее спасибо! Сын будет в восторге!

Добавлено спустя 5 минут 23 секунды:

Большущее спасибо!
bosoncom
Стаж: 7 лет 9 мес.
Сообщений: 1
Ratio: 0,065
0%
Спасибо!!!
эксклюзив ®
Стаж: 8 лет 7 мес.
Сообщений: 1169
Ratio: 159,795
Поблагодарили: 75094
100%
Торрент обновлен
Добавлены 45-46 серии

_________________
Жизнь дает много тем для размышлений, но мало времени.
CHUCK-CHA
Стаж: 8 лет 10 мес.
Сообщений: 31
Ratio: 0,962
67.71%
спасибо чувак ребёнку должно понравиться
bombardir2705
Стаж: 8 лет 5 мес.
Сообщений: 354
Ratio: 21,183
Поблагодарили: 1
100%
ussr.gif
спасибо большое
эксклюзив ®
Стаж: 8 лет 7 мес.
Сообщений: 1169
Ratio: 159,795
Поблагодарили: 75094
100%
Торрент обновлен
Добавлена 47 серия

_________________
Жизнь дает много тем для размышлений, но мало времени.
Андрей74
Стаж: 11 лет 8 мес.
Сообщений: 6
Ratio: 3,854
Поблагодарили: 7
35.11%
Откуда: Коми
russia.gif
Куда подевался торрент?
Показать сообщения:   
Начать новую тему   Ответить на тему    Торрент-трекер NNM-Club -> Видео -> Развивающее Видео для детей Часовой пояс: GMT + 3
Страницы:   Пред.  1, 2
Страница 2 из 2