Классический форум-трекер
canvas not supported
Нас вместе: 4 104 806

Счастье есть (4 серии) (2011) SATRip


 
 
RSS
Начать новую тему   Ответить на тему    Торрент-трекер NNM-Club -> Отечественные сериалы
Автор Сообщение
Yurka-lviv ®
Стаж: 9 лет 3 мес.
Сообщений: 61
Ratio: 1,898
Поблагодарили: 6212
100%
Откуда: Milan
italy.gif
Счастье есть (4 серии) (2011) SATRip
Русское название: Счастье есть (4 серии)
Оригинальное название: Счастье есть (4 серии)
Год выпуска: 2011
Производство: Россия
Жанр: Мелодрама

Язык: Русский
Перевод: Отсутствует
Субтитры: Отсутствуют


Дата российской премьеры: 22.10.2011

Режиссер: Дмитрий Сорокин
Продюсер: Александр Кушаев, Владимир Игнатьев, Евгений Арендаревич
Актеры: Наталия Антонова Александр Тютин Анна Михайловская Эльдар Лебедев Дмитрий Мухин Игорь Сигов Светлана Зеленковская Евгения Кульбачная Виктор Васильев Дмитрий Пустильник

Описание фильма:
Светлане сорок лет. Когда-то давным-давно ей не удалось закончить медицинский ВУЗ и поэтому она вынуждена всю жизнь «подрабатывать». Живет в однокомнатной квартире вместе с восемнадцатилетней дочерью, у которой начинается своя «личная жизнь».
В одно «прекрасное» утро Светлана узнает, что она – беременна. Новость приводить в шок отца ребенка - женатого командировочного мужчину, у которого со Светланой был роман. Не готова к «братику или сестричке» и дочь Светланы. Она как раз предложила своему любимому «пожить» в квартире мамы. Сама Светлана не знает готова ли она «снова» стать мамой.
Чтобы разобраться в себе, не конфликтовать с дочерью Светлана «бросает все» и отправляется в провинциальный городок к сестре. Но «убежать от проблем» не удается. На новом месте главную героиню ждут новые испытания, новая любовь и долгожданная радость.
Может ли «случиться счастье» в сорок лет, на самом ли деле в жизни «все к лучшему», главной героине фильма «Счастье есть» предстоит на собственном опыте убедиться в этом

Продолжительность:
1 серия: 00:43:21
2 серия: 00:43:45
3 серия: 00:43:38
4 серия: 00:46:26
Качество видео: SATRip

Видеокодек: Xvid
Битрейт видео: ~~1057 kbps avg, 0.18 bit/pixel
Размер кадра: 640x360 (1.78:1), 25 fps

Аудиокодек: 48 kHz, MPEG Layer 3, 2 ch
Битрейт аудио: ~128.00 kbps avg
Сэмпл: Скачать
Видео
Идентификатор : 0
Формат : MPEG-4 Visual
Профиль формата : Advanced Simple@L5
Параметр BVOP формата : 2
Параметр QPel формата : Нет
Параметр GMC формата : Без точки перехода
Параметр матрицы формата : Default (H.263)
Идентификатор кодека : XVID
Идентификатор кодека/Подсказка : XviD
Продолжительность : 43 м.
Битрейт : 1058 Кбит/сек
Ширина : 640 пикселей
Высота : 360 пикселей
Соотношение сторон : 16:9
Частота кадров : 25,000 кадров/сек
Цветовое пространство : YUV
Субдискретизация насыщенности : 4:2:0
Битовая глубина : 8 бит
Тип развёртки : Прогрессивная
Метод сжатия : С потерями
Бит/(Пиксели*Кадры) : 0.184
Размер потока : 328 Мбайт (88%)
Библиотека кодирования : XviD 64

Аудио
Идентификатор : 1
Формат : MPEG Audio
Версия формата : Version 1
Профиль формата : Layer 3
Режим : Joint stereo
Расширение режима : MS Stereo
Идентификатор кодека : 55
Идентификатор кодека/Подсказка : MP3
Продолжительность : 43 м.
Вид битрейта : Постоянный
Битрейт : 128 Кбит/сек
Каналы : 2 канала
Частота : 48,0 КГц
Метод сжатия : С потерями
Размер потока : 39,7 Мбайт (11%)
Выравнивание : Соединение по промежуткам
Продолжительность промежутка : 40 мс. (1,00 видеокадр)
Время предзагрузки промежутка : 504 мс.
Библиотека кодирования : LAME3.98r
Настройки программы : -m j -V 4 -q 2 -lowpass 17 -b 128
Скриншоты:



Время раздачи: 24/7 - круглосуточно
[NNM-Club.ru]_Schast'e est'.torrent
 Торрент: Платиновая раздача  Зарегистрирован
 
Скачать


Примагнититься
 Зарегистрирован:   28 Окт 2011 16:10:30
 Размер:   1,45 GB  (
 Рейтинг:   4,3 (Голосов: 12)
 Поблагодарили:   80
 Проверка:   Оформление проверено модератором 30 Окт 2011 15:10:03
Как cкачать  ·  Как раздать  ·  Правильно оформить  ·  Поднять ратио!  
Показать сообщения:   
Начать новую тему   Ответить на тему    Торрент-трекер NNM-Club -> Отечественные сериалы Часовой пояс: GMT + 3
Страница 1 из 1