Классический форум-трекер
canvas not supported
Нас вместе: 4 079 074

Юрка - сын командира (1984) TVRip


 
 
RSS
Начать новую тему   Ответить на тему    Торрент-трекер NNM-Club -> Видео -> Отечественные Фильмы для детей
Автор Сообщение
эксклюзив ®
Стаж: 8 лет 7 мес.
Сообщений: 1169
Ratio: 159,795
Поблагодарили: 75098
100%
Юрка - сын командира (1984) TVRip
Русское название: Юрка - сын командира
Год выпуска: 1984
Жанр: Детский



Релиз группа:

Описание фильма:
Семилетний Юрка — сын пограничника — переезжает с отцом на белорусскую погранзаставу и в первый же день узнает о том, что здесь нет ни одного сверстника. Случайное знакомство с лейтенантом Шахназаровым выливается в трогательную дружбу. Когда старший друг с тяжелой раной, полученной при задержании преступника, попадает в госпиталь, Юрка, не задумываясь, предлагает свою кровь.

Режиссер: Николай Лукьянов
Актеры: Олег Полушкин, Андрей Анкудинов, Евгений Никитин, Светлана Михалькова, Ольга Ероховец, Юрий Казючиц, Раиса Астрединова, Владимир Трещалов, Сосо Джачвлиани, Алексей Колокольцев

Продолжительность: 01:09:52

Видеокодек: Xvid
Битрейт видео: ~1265 kb/s
Размер кадра: 720x544
Качество видео: TVRip
Аудиокодек: MP3, 2 ch
Битрейт аудио: 128 kb/s
Общее
Полное имя : D:\Фильм\Юрка - сын командира.1984.XviD.SATRip..avi
Формат : AVI
Формат/Информация : Audio Video Interleave
Размер файла : 702 Мбайт
Продолжительность : 1 ч. 9 м.
Общий поток : 1406 Кбит/сек
Программа кодирования : MEncoder dev-SVN-rUNKNOWN-4.2.1
Библиотека кодирования : MPlayer

Видео
Идентификатор : 0
Формат : MPEG-4 Visual
Профиль формата : Advanced Simple@L5
Параметр BVOP формата : 2
Параметр QPel формата : Нет
Параметр GMC формата : Без точки перехода
Параметр матрицы формата : Default (H.263)
Идентификатор кодека : XVID
Идентификатор кодека/Подсказка : XviD
Продолжительность : 1 ч. 9 м.
Битрейт : 1265 Кбит/сек
Ширина : 720 пикс.
Высота : 544 пикс.
Соотношение сторон : 4:3
Частота кадров : 25,000 кадр/сек
Цветовое пространство : YUV
Подвыборка цветности : 4:2:0
Битовая глубина : 8 бит
Тип развёртки : Прогрессивная
Метод сжатия : С потерями
Бит/(Пиксели*Кадры) : 0.129
Размер потока : 632 Мбайт (90%)
Библиотека кодирования : XviD 1.2.0.dev47 (UTC 2006-11-01)

Аудио
Идентификатор : 1
Формат : MPEG Audio
Версия формата : Version 1
Профиль формата : Layer 3
Режим : Joint stereo
Идентификатор кодека : 55
Идентификатор кодека/Подсказка : MP3
Продолжительность : 1 ч. 9 м.
Вид битрейта : Постоянный
Битрейт : 128 Кбит/сек
Канал(ы) : 2 канала(ов)
Частота : 44,1 КГц
Метод сжатия : С потерями
Задержка видео : 40 мс.
Размер потока : 64,0 Мбайт (9%)
Выравнивание : Соединение по промежуткам
Продолжительность промежутка : 26 мс. (0,65 видеокадр)
Время предзагрузки промежутка : 522 ms
Скриншоты:


[NNM-Club.ru]_YUrka - syin komandira.1984.XviD.SATRip..avi.torrent
 Торрент: Золотая раздача  Зарегистрирован
 
Зарегистрируйтесь и скачайте торрент!
14 KB

Примагнититься
 Зарегистрирован:   28 Окт 2011 19:21:24
 Размер:   702 MB  (
 Рейтинг:    (Голосов: 5)
 Поблагодарили:   18
 Проверка:   Оформление проверено модератором 28 Окт 2011 20:36:43
Как cкачать  ·  Как раздать  ·  Правильно оформить  ·  Поднять ратио!  
My Own Park
Стаж: 8 лет 7 мес.
Сообщений: 20
Ratio: 54,189
100%
Не помнит где его побывала?
Показать сообщения:   
Начать новую тему   Ответить на тему    Торрент-трекер NNM-Club -> Видео -> Отечественные Фильмы для детей Часовой пояс: GMT + 3
Страница 1 из 1