Классический форум-трекер
canvas not supported
Нас вместе: 4 101 037

Золотой эшелон (1959) DVDRip


 
 
RSS
Начать новую тему   Ответить на тему    Торрент-трекер NNM-Club -> Классика кино и Старые фильмы до 90-х -> Отечественная Классика (HD*Rip/LQ, DVDRip, SATRip, VHSRip)
Автор Сообщение
viktor561 ®
Гость
Золотой эшелон (1959) DVDRip
Год выпуска: 1959
Жанр: Военный, Приключения

Описание фильма:
1919 год. В Сибири идет гражданская война. Пользуясь полной неразберихой, Генерал Колчак хочет вывезти за границу часть золотого запаса страны. В самый последний момент об этом узнают большевики.
Они решают перехватить эшелон, но не успевают как следует подготовить операцию… Но все же шанс есть. Спасти ситуацию может девушка Надя, в которую страстно влюблен начальник поезда… Несколько километров железнодорожных путей до границы становятся полем битвы между белыми и красными. У тех и других одинаково красная кровь.

Режиссер: Илья Гурин
Актеры: Василий Шукшин, Елена Добронравова, Харий Лиепиньш, Михаил Козаков, Михаил Зимин, Павел Усовниченко, Степан Крылов, Валентина Беляева, Михаил Бочаров, Петр Вишняков, Аркадий Вовси, Эрвин Кнаусмюллер, Виктор Кольцов, Станислав Коренев, Алексей Краснопольский, Евгений Кузнецов, Сергей Папов, Александр Толстых, Владимир Трошин, Аркадий Трусов, Александр Шатов, Анатолий Юшко, Ян Янакиев


Продолжительность: 01:34:19
Качество видео: DVDRip

Видео: DivX Codec 6.8.3, 688x512 (1.34:1) ~1680 kbps avg, 0.19 bit/pixel
Аудио: AC3 Dolby Digital, 3/2 (L,C,R,l,r) + LFE ch, ~384 kbps
Код: выделить все
Общее
Полное имя                       : C:\zolotoy_eselon.avi
Формат                           : AVI
Формат/Информация                : Audio Video Interleave
Размер файла                     : 1,37 Гбайт
Продолжительность                : 1 ч. 34 м.
Общий поток                      : 2074 Кбит/сек
Программа кодирования            : FairUse Wizard - http://fairusewizard.com
Библиотека кодирования           : The best and REALLY easy backup tool

Видео
Идентификатор                    : 0
Формат                           : MPEG-4 Visual
Параметр BVOP формата            : 1
Параметр QPel формата            : Нет
Параметр GMC формата             : Без точки перехода
Параметр матрицы формата         : Default (H.263)
Режим смешивания                 : Сжатый битовый поток
Идентификатор кодека             : DX50
Идентификатор кодека/Подсказка   : DivX 5
Продолжительность                : 1 ч. 34 м.
Битрейт                          : 1681 Кбит/сек
Ширина                           : 688 пикселей
Высота                           : 512 пикселей
Соотношение сторон               : 4:3
Частота кадров                   : 25,000 кадров/сек
Цветовое пространство            : YUV
Субдискретизация насыщенности    : 4:2:0
Битовая глубина                  : 8 бит
Тип развёртки                    : Прогрессивная
Метод сжатия                     : С потерями
Бит/(Пиксели*Кадры)              : 0.191
Размер потока                    : 1,11 Гбайт (81%)
Библиотека кодирования           : DivX 6.8.3-6.8.4 (UTC 2008-06-07)

Аудио
Идентификатор                    : 1
Формат                           : AC-3
Формат/Информация                : Audio Coding 3
Расширение режима                : CM (complete main)
Идентификатор кодека             : 2000
Продолжительность                : 1 ч. 34 м.
Вид битрейта                     : Постоянный
Битрейт                          : 384 Кбит/сек
Каналы                           : 6 каналов
Расположение каналов             : Front: L C R, Side: L R, LFE
Частота                          : 48,0 КГц
Битовая глубина                  : 16 бит
Метод сжатия                     : С потерями
Размер потока                    : 259 Мбайт (19%)
Выравнивание                     : Разделение по промежуткам
Продолжительность промежутка     : 40  мс. (1,00 видеокадр)
Время предзагрузки промежутка    : 500  мс.
Скриншоты:


Время раздачи: 24/7 - до 10 скачавших МОИ РЕЛИЗЫ
[NNM-Club.ru]_zolotoy_eselon.avi.torrent
 Торрент: Платиновая раздача  Зарегистрирован
 
Скачать


Примагнититься
 Зарегистрирован:   31 Окт 2011 19:09:18
 Размер:   1,37 GB  (
 Рейтинг:   4,4 (Голосов: 18)
 Поблагодарили:   72
 Проверка:   Оформление проверено модератором 02 Ноя 2011 00:16:26
Как cкачать  ·  Как раздать  ·  Правильно оформить  ·  Поднять ратио!  
Панюра
Стаж: 8 лет 10 мес.
Сообщений: 23
Ratio: 2,142
100%
russia.gif
Фильм был цветной.
Викторов ®
Гость
Код:
  [poster=right]http://i.imgur.com/Nw7tWun.jpg[/poster]   
Общее
Полное имя : C:\zolotoy_eselon.avi
Формат : AVI
Формат/Информация : Audio Video Interleave
Размер файла : 1,37 Гбайт
Продолжительность : 1 ч. 34 м.
Общий поток : 2074 Кбит/сек
Программа кодирования : FairUse Wizard - http://fairusewizard.com
Библиотека кодирования : The best and REALLY easy backup tool

Видео
Идентификатор : 0
Формат : MPEG-4 Visual
Параметр BVOP формата : 1
Параметр QPel формата : Нет
Параметр GMC формата : Без точки перехода
Параметр матрицы формата : Default (H.263)
Режим смешивания : Сжатый битовый поток
Идентификатор кодека : DX50
Идентификатор кодека/Подсказка : DivX 5
Продолжительность : 1 ч. 34 м.
Битрейт : 1681 Кбит/сек
Ширина : 688 пикселей
Высота : 512 пикселей
Соотношение сторон : 4:3
Частота кадров : 25,000 кадров/сек
Цветовое пространство : YUV
Субдискретизация насыщенности : 4:2:0
Битовая глубина : 8 бит
Тип развёртки : Прогрессивная
Метод сжатия : С потерями
Бит/(Пиксели*Кадры) : 0.191
Размер потока : 1,11 Гбайт (81%)
Библиотека кодирования : DivX 6.8.3-6.8.4 (UTC 2008-06-07)

Аудио
Идентификатор : 1
Формат : AC-3
Формат/Информация : Audio Coding 3
Расширение режима : CM (complete main)
Идентификатор кодека : 2000
Продолжительность : 1 ч. 34 м.
Вид битрейта : Постоянный
Битрейт : 384 Кбит/сек
Каналы : 6 каналов
Расположение каналов : Front: L C R, Side: L R, LFE
Частота : 48,0 КГц
Битовая глубина : 16 бит
Метод сжатия : С потерями
Размер потока : 259 Мбайт (19%)
Выравнивание : Разделение по промежуткам
Продолжительность промежутка : 40 мс. (1,00 видеокадр)
Время предзагрузки промежутка : 500 мс.
Показать сообщения:   
Начать новую тему   Ответить на тему    Торрент-трекер NNM-Club -> Классика кино и Старые фильмы до 90-х -> Отечественная Классика (HD*Rip/LQ, DVDRip, SATRip, VHSRip) Часовой пояс: GMT + 3
Страница 1 из 1