Классический форум-трекер
canvas not supported
Нас вместе: 4 077 736

Любимчики / La tropa de trapo en el país donde siempre brilla el sol (2010) DVDRip


 
 
RSS
Начать новую тему   Ответить на тему    Торрент-трекер NNM-Club -> Мультфильмы -> Зарубежные Мультфильмы для детей
Автор Сообщение
Yurka-lviv ®
Стаж: 8 лет 8 мес.
Сообщений: 61
Ratio: 1,953
Поблагодарили: 6201
100%
Откуда: Milan
italy.gif
Любимчики / La tropa de trapo en el país donde siempre brilla el sol (2010) DVDRip
Русское название: Любимчики
Оригинальное название: La tropa de trapo en el país donde siempre brilla el sol
Производство: Испания
Год выпуска: 2010
Жанр: Детский

Перевод: Дублированный



Дата мировой премьеры: 25 сентября 2011
Дата российской премьеры: 29 сентября 2011, «Кинопром»
Дата выхода DVD/Blu-Ray релиза: 15 ноября 2011, «Парадиз Видео»

Режиссер: Алекс Коллс
Персонажи: Чело Диаз, Anton Etxeita, Гаспар Гонзалес, Clara Gagino, София Ферро, Тере Сантамария, Луис Иглесиас, Андрес Беллас, Нора Абад, Беа Гарсиа

Описание фильма:
Приключения коровки Му-Му и ее друзей. Чтобы стать настоящей звездой, ей предстоит отправиться в волшебную страну, где всегда светит солнышко. Во время путешествия она понимает, что не важно звезда ты или нет, главное, что у тебя есть друзья!

Продолжительность: 01:14:18
Качество видео: DVDRip

Видеокодек: Xvid
Битрейт видео: 1182 kb/s
Размер кадра: 720x400
Аудиокодек: MP3, 2 ch
Битрейт аудио: 128 kb/s
Общее
Полное имя : D:\Torrent\Lubimchiki.2010.D.DVDRip.avi
Формат : AVI
Формат/Информация : Audio Video Interleave
Размер файла : 700 Мбайт
Продолжительность : 1 ч. 14 м.
Общий поток : 1317 Кбит/сек
Программа кодирования : VirtualDubMod 1.5.4.1 (build 2178/release)
Библиотека кодирования : VirtualDubMod build 2178/release

Видео
Идентификатор : 0
Формат : MPEG-4 Visual
Профиль формата : Simple@L3
Параметр BVOP формата : 1
Параметр QPel формата : Нет
Параметр GMC формата : Без точки перехода
Параметр матрицы формата : Выборочная
Идентификатор кодека : XVID
Идентификатор кодека/Подсказка : XviD
Продолжительность : 1 ч. 14 м.
Битрейт : 1182 Кбит/сек
Ширина : 720 пикселей
Высота : 400 пикселей
Соотношение сторон : 16:9
Частота кадров : 25,000 кадров/сек
Цветовое пространство : YUV
Субдискретизация насыщенности : 4:2:0
Битовая глубина : 8 бит
Тип развёртки : Прогрессивная
Метод сжатия : С потерями
Бит/(Пиксели*Кадры) : 0.164
Размер потока : 628 Мбайт (90%)
Библиотека кодирования : XviD 1.0.3 (UTC 2004-12-20)

Аудио
Идентификатор : 1
Формат : MPEG Audio
Версия формата : Version 1
Профиль формата : Layer 3
Режим : Joint stereo
Расширение режима : MS Stereo
Идентификатор кодека : 55
Идентификатор кодека/Подсказка : MP3
Продолжительность : 1 ч. 14 м.
Вид битрейта : Постоянный
Битрейт : 128 Кбит/сек
Каналы : 2 канала
Частота : 48,0 КГц
Метод сжатия : С потерями
Размер потока : 68,0 Мбайт (10%)
Выравнивание : Соединение по промежуткам
Продолжительность промежутка : 80 мс. (2,00 видеокадра)
Время предзагрузки промежутка : 504 мс.
Библиотека кодирования : LAME3.98
Скриншоты:


Время раздачи: 24/7 - круглосуточно
[NNM-Club.ru]_Lubimchiki.2010.D.DVDRip.avi.torrent
 Торрент: Золотая раздача  Зарегистрирован
 
Зарегистрируйтесь и скачайте торрент!
14,1 KB
Free Leech
Примагнититься
 Зарегистрирован:   02 Ноя 2011 20:30:36
 Размер:   700 MB  (
 Рейтинг:   4,5 (Голосов: 16)
 Поблагодарили:   73
 Проверка:   Оформление проверено модератором 02 Ноя 2011 21:01:55
Как cкачать  ·  Как раздать  ·  Правильно оформить  ·  Поднять ратио!  
Юля2009
Стаж: 9 лет 2 мес.
Сообщений: 366
Ratio: 2,782
100%
Откуда: Сибирь
russia.gif
Ну и чепуха!..
ment123
Стаж: 9 лет 4 мес.
Сообщений: 178
Ratio: 1,019
100%
russia.gif
я качну на работе посмотрю пусть парни-полицейские оценят
Показать сообщения:   
Начать новую тему   Ответить на тему    Торрент-трекер NNM-Club -> Мультфильмы -> Зарубежные Мультфильмы для детей Часовой пояс: GMT + 3
Страница 1 из 1