Классический форум-трекер
canvas not supported
Нас вместе: 4 078 882

Лунтик и его друзья. Сезон 3 (2008) DVDRip


 
 
RSS
Начать новую тему   Ответить на тему    Торрент-трекер NNM-Club -> Мультфильмы -> Отечественные Мультсериалы
Автор Сообщение
Алеся ®
Стаж: 9 лет 2 мес.
Сообщений: 154
Ratio: 111,762
Раздал: 212 GB
Поблагодарили: 5880
100%
ussr.gif
Лунтик и его друзья. Сезон 3 (2008) DVDRip
Русское название: Лунтик и его друзья. Сезон 3
Год выпуска: 2008
Жанр: Детский, Рисованная анимация

Режиссер: Дарина Шмидт
Персонажи: Лунтик, Кузя, Пчеленок, Мила

Описание фильма:
Приключения Лунтика продолжаются! Лунтик - это маленькое пушистое существо, он родился на Луне, но однажды свалился с нее на Землю. На Земле милый дружелюбный малыш встретил новых друзей. Вместе с ними Лунтик впервые открывает для себя мир, узнает, что такое дружба и любовь, верность и счастье. В новых сериях любимца всех детей ждут невероятные приключения вместе с его верными друзьями.

Продолжительность: 60 х ~ 00:05:39
Качество видео: DVDRip

Видеокодек: Xvid
Битрейт видео: ~ 1506 kpbs
Размер кадра: 720х560
Аудиокодек: AC3, 2ch
Битрейт аудио: 192 kpbs


Полное имя: D:\Мои видеозаписи\Мультфильмы\Лунтик 3
Формат: AVI
Формат/Информация: Audio Video Interleave
Размер файла: 69,9 Мбайт
Продолжительность: 5 м. 39 с.
Общий поток: 1730 Кбит/сек
Название фильма: DVD_VOLUME.Title3.DVDRip
Режиссёр: Дарина Шмидт
Программа кодирования: Lavf51.19.0
Формат оригинала/Имя: DVD_VOLUME

Видео
Идентификатор: 0
Формат: MPEG-4 Visual
Профиль формата: Simple@L3
Параметр BVOP формата: Нет
Параметр QPel формата: Нет
Параметр GMC формата: Без точки перехода
Параметр матрицы формата: Default (H.263)
Идентификатор кодека: XVID
Идентификатор кодека/Подсказка: XviD
Продолжительность: 5 м. 39 с.
Битрейт: 1527 Кбит/сек
Ширина: 720 пикселей
Высота: 560 пикселей
Соотношение сторон: 1,286
Частота кадров: 25,000 кадров/сек
Цветовое пространство: YUV
Субдискретизация насыщенности: 4:2:0
Битовая глубина: 8 бит
Тип развёртки: Прогрессивная
Метод сжатия: С потерями
Бит/(Пиксели*Кадры): 0.151
Размер потока: 61,7 Мбайт (88%)
Библиотека кодирования: XviD 1.1.2 (UTC 2006-11-01)

Аудио
Идентификатор: 1
Формат: AC-3
Формат/Информация: Audio Coding 3
Расширение режима: CM (complete main)
Идентификатор кодека: 2000
Продолжительность: 5 м. 38 с.
Вид битрейта: Постоянный
Битрейт: 192 Кбит/сек
Каналы: 2 канала
Расположение каналов: Front: L R
Частота: 48,0 КГц
Битовая глубина: 16 бит
Метод сжатия: С потерями
Размер потока: 7,75 Мбайт (11%)
Выравнивание: Соединение по промежуткам
Продолжительность промежутка: 32 мс. (0,80 видеокадр)
Время предзагрузки промежутка: 32 мс.
Скриншоты:


Время раздачи: с 10 до 20 (по возможности)
[NNM-Club.ru]_Luntik 3.torrent
 Торрент: Платиновая раздача  Зарегистрирован
 
Скачать


Примагнититься
 Зарегистрирован:   17 Ноя 2011 21:07:41
 Размер:   4,1 GB  (
 Рейтинг:   4,7 (Голосов: 126)
 Поблагодарили:   404
 Проверка:   Оформление проверено модератором 17 Ноя 2011 21:16:16
Как cкачать  ·  Как раздать  ·  Правильно оформить  ·  Поднять ратио!  
Загрузка...
мин-воды
 
Стаж: 8 лет 7 мес.
Сообщений: 2044
Ratio: 18,562
Поблагодарили: 54057
100%
Откуда: Минеральные Воды
neth_antilles.gif
второй месяц не могу докачать, где раздача, ау!

 !  Примечание от denver7979:
Устное предупреждение!
Раздаче 8 дней от роду! Ваше высказывание неуместно. Внимательнее к правилам!

5.7. Запрещены ничем неаргументированные отрицательные комментарии в отношении релиза; в адрес релизера; в адрес других участников обсуждения.
Помните, раздачи на нашем трекере ни в коей мере не предназначены для удовлетворения ваших личных запросов, если вам не нравится раздача или скорость раздачи - попробуйте поискать что-либо подходящее вам в другом месте без негативных комментариев здесь.
id_snake
Стаж: 9 лет 5 мес.
Сообщений: 84
Ratio: 5,647
100%
ukraine.gif
Спасибо большое! Поддержу раздачу по возможности. Ребенку очень нравится.

_________________
Официальный переводчик GOM Player до версии 2.1.9.3754
Алеся ®
Стаж: 9 лет 2 мес.
Сообщений: 154
Ratio: 111,762
Раздал: 212 GB
Поблагодарили: 5880
100%
ussr.gif
id_snake

Очень рада, что Вам понравилось.
dashio
 
Стаж: 9 лет 5 мес.
Сообщений: 321
Ratio: 14,984
100%
witch.png
спасибо

_________________
msi gt72 6qd dominator g (озу 24 GB)
Алеся ®
Стаж: 9 лет 2 мес.
Сообщений: 154
Ratio: 111,762
Раздал: 212 GB
Поблагодарили: 5880
100%
ussr.gif
dashio, пожалуйста!
Serg7GS
Стаж: 8 лет 7 мес.
Сообщений: 1
Ratio: 4,177
26.47%
ukraine.gif
Большое спасибо!
Алеся ®
Стаж: 9 лет 2 мес.
Сообщений: 154
Ratio: 111,762
Раздал: 212 GB
Поблагодарили: 5880
100%
ussr.gif
Serg7GS, большое пожалуйста!
PATRIOT7575
Стаж: 9 лет 4 мес.
Сообщений: 1
Ratio: 1,284
100%
Откуда: Электросталь
russia.gif
Спасибо!
djsaga
Стаж: 6 лет 11 мес.
Сообщений: 15
Ratio: 27,711
9.32%
germany.gif
Спасибо! Поддержу раздачу.
Показать сообщения:   
Начать новую тему   Ответить на тему    Торрент-трекер NNM-Club -> Мультфильмы -> Отечественные Мультсериалы Часовой пояс: GMT + 3
Страница 1 из 1