Классический форум-трекер
canvas not supported
Нас вместе: 4 083 571
Платим за отзывы

Город бога / Cidade de Deus (2002) [H.264/720р-LQ] BDRip


 
 
RSS
Начать новую тему   Ответить на тему    Торрент-трекер NNM-Club -> Зарубежное кино -> Зарубежные Фильмы (HD*Rip/LQ, DVDRip, SATRip, VHSRip)
Автор Сообщение
473577249PL ®
Стаж: 9 лет 6 мес.
Сообщений: 341
Ratio: 420,619
Поблагодарили: 46346
Откуда: Воронеж
logo.gif
Город бога / Cidade de Deus [H.264] BDRip
Русское название: Город бога
Оригинальное название: Cidade de Deus
Год выпуска: 2002
Жанр: Драма, Криминал

Описание фильма:
60-е годы XX века. «Город Бога» — квартал в Рио-де-Жанейро, где живут главные герои — 8-летний Ракета, мечтающий стать фотографом, и его одногодок Дадинью. Дадинью принимает участие в вооруженном ограблении, организованном живущим по соседству гангстером Кабалейрой; с согласия Кабалейры он совершает свое первое убийство.
70-е годы. Ракета постоянно балансирует между мелкими правонарушениями и честной жизнью. На счету у Дадинью уже несколько убийств. Он возглавляет банду, которой управляет, используя хитрость и хладнокровное предательство. Поняв, что настоящая власть и большие деньги может дать только контроль над торговлей наркотиками в их квартале, он безжалостно идет к своей цели.
80-е годы. Ракета наконец получает фотоаппарат и осуществляет свою детскую мечту. Мечта Дадинью тоже сбылась: в 18 лет он стал самым крутым торговцем наркотиками в Рио.

Режиссер: Фернанду Мейреллиш, Катя Люнд
Актеры: Александр Родригез, Леандро Фирмино, Феллипе Хаагенсен, Дуглас Силва, Джонатан Хаагенсен, Матеус Нахтергейл, Сеу Хорхе, Жефехандер Суплино, Алиси Брага, Эмерсон Гомес

Продолжительность: 02:09:28
Перевод: Профессиональный (многоголосый, закадровый)



Релиз группа:

Видеокодек: MPEG-4 AVC/H.264
Битрейт видео: 2023 Кбит/сек
Размер кадра: 1280х692
Качество видео: BDRip
Аудиокодек: AC3 5.1
Битрейт аудио: 384 Кбит/сек
Общее
Уникальный идентификатор : 206314124139892691620366700056180792198 (0x9B36A7ABA979D4A4801FE39D5FD59B86)
Полное имя : E:\downloads\City.of.God.2002.720p.BDRip.x264[nnmclub.to].mkv
Формат : Matroska
Версия формата : Version 2
Размер файла : 2,18 Гбайт
Продолжительность : 2 ч. 9 м.
Общий поток : 2408 Кбит/сек
Дата кодирования : UTC 2011-11-14 16:28:31
Программа кодирования : mkvmerge v4.0.0 ('The Stars were mine') сборка от Jun 6 2010 16:18:42
Библиотека кодирования : libebml v1.0.0 + libmatroska v1.0.0

Видео
Идентификатор : 1
Формат : AVC
Формат/Информация : Advanced Video Codec
Профиль формата : High@L4.1
Параметр CABAC формата : Да
Параметр ReFrames формата : 3 кадра
Идентификатор кодека : V_MPEG4/ISO/AVC
Продолжительность : 2 ч. 9 м.
Вид битрейта : Переменный
Битрейт : 2023 Кбит/сек
Максимальный битрейт : 14,0 Мбит/сек
Ширина : 1280 пикселей
Высота : 692 пикселя
Соотношение сторон : 1,850
Частота кадров : 23,976 кадра/сек
Цветовое пространство : YUV
Субдискретизация насыщенности : 4:2:0
Битовая глубина : 8 бит
Тип развёртки : Прогрессивная
Бит/(Пиксели*Кадры) : 0.095
Размер потока : 1,79 Гбайт (82%)
Библиотека кодирования : x264 core 116 r2074 2641b9e
Настройки программы : cabac=1 / ref=2 / deblock=1:-1:-1 / analyse=0x3:0x113 / me=hex / subme=6 / psy=1 / psy_rd=1.00:0.15 / mixed_ref=1 / me_range=16 / chroma_me=1 / trellis=1 / 8x8dct=1 / cqm=0 / deadzone=21,11 / fast_pskip=1 / chroma_qp_offset=-3 / threads=3 / sliced_threads=0 / slices=4 / nr=0 / decimate=1 / interlaced=0 / bluray_compat=1 / constrained_intra=0 / bframes=3 / b_pyramid=1 / b_adapt=1 / b_bias=0 / direct=1 / weightb=1 / open_gop=1 / weightp=1 / keyint=24 / keyint_min=2 / scenecut=40 / intra_refresh=0 / rc_lookahead=24 / rc=2pass / mbtree=1 / bitrate=2023 / ratetol=1.0 / qcomp=0.60 / qpmin=10 / qpmax=51 / qpstep=4 / cplxblur=20.0 / qblur=0.5 / vbv_maxrate=14000 / vbv_bufsize=14000 / nal_hrd=vbr / ip_ratio=1.40 / aq=1:1.00
Язык : English

Аудио
Идентификатор : 2
Формат : AC-3
Формат/Информация : Audio Coding 3
Расширение режима : CM (complete main)
Идентификатор кодека : A_AC3
Продолжительность : 2 ч. 9 м.
Вид битрейта : Постоянный
Битрейт : 384 Кбит/сек
Каналы : 6 каналов
Расположение каналов : Front: L C R, Side: L R, LFE
Частота : 48,0 КГц
Битовая глубина : 16 бит
Метод сжатия : С потерями
Размер потока : 356 Мбайт (16%)
Заголовок : mnogogolosyi
Скриншоты:




Время раздачи: 24/7 - до 5 сидов
City.of.God.2002.720p.BDRip.x264[nnm-club.ru].mkv.torrent
 Торрент: Платиновая раздача  Зарегистрирован
 
Скачать


Примагнититься
 Зарегистрирован:   19 Ноя 2011 11:02:33
 Размер:   2,18 GB  (
 Рейтинг:   4,9 (Голосов: 169)
 Поблагодарили:   811
 Проверка:   Оформление проверено модератором 19 Ноя 2011 13:07:37
Как cкачать  ·  Как раздать  ·  Правильно оформить  ·  Поднять ратио!  
SemenPaliy
Стаж: 9 лет 2 мес.
Сообщений: 107
Ratio: 1,304
100%
Откуда: Украина
ukraine.gif
Отличный фильм!
Есть продолжение, но первый фильм вне конкуренции.
igol10
Стаж: 9 лет 4 мес.
Сообщений: 320
Ratio: 0,89
100%
ussr.gif
поддерживаю, как рип не знаю но фильм очень хороший, всем советую!!!

_________________
То, что человек не всегда пользуется мозгами, не значит, что их у него нет....
AdrenalineXP
Стаж: 9 лет 5 мес.
Сообщений: 9
Ratio: 2,126
Раздал: 275 GB
35%
Фильм довольно хороший
kingsize777
Стаж: 8 лет 2 мес.
Сообщений: 64
Ratio: 3,076
100%
russia.gif
Сильно, слов нет.
fullash
Стаж: 11 лет 3 мес.
Сообщений: 42
Ratio: 3,693
100%
даБ фильм хороший!
советую посмотреть!
Ignotus
Стаж: 7 лет 1 мес.
Сообщений: 1326
Ratio: 283,401
100%
ussr.gif
Об этом фильме узнал после просмотра "Свалки". Тяжелое кино. Сценарий отличный, фильм полон наркотиков, убийств, насилия. Жесткое кино, но оно стоит оценки 5 из 5.

_________________
В этом мире нет секретов, даже если все думают, что это только их секрет.
sampad
Стаж: 9 лет 5 мес.
Сообщений: 20
Ratio: 1,256
Раздал: 388 GB
33.33%
russia.gif
Классный фильм, трудно поверить, что он основан на реальных событиях. Если это так, то не этим американским блядям учить нас тому что хорошо, а что плохо
leopold1950
Стаж: 6 лет
Сообщений: 252
Ratio: 75,161
100%
Дети и оружие, много оружия, откуда, и оно, оружие, всё время стреляет, жуть - жизнь ничего не стоит... Возможно их жизнь уже изменилась и эти детские гетто ушли в прошлое???
Топик был перенесен из форума Авторское кино в форум Зарубежные Фильмы (HD*Rip/LQ, DVDRip, SATRip, VHSRip)



Исправил релиз - напиши ЛС MAG3131, дав ссылку на релиз.
Если нет ответа 24 часа - нажми на кнопку "Обратить внимание модераторов".
Показать сообщения:   
Начать новую тему   Ответить на тему    Торрент-трекер NNM-Club -> Зарубежное кино -> Зарубежные Фильмы (HD*Rip/LQ, DVDRip, SATRip, VHSRip) Часовой пояс: GMT + 3
Страница 1 из 1