Классический форум-трекер
canvas not supported
Нас вместе: 4 079 018

Иванов Иван | Детский массаж до года [2006] DVDRip


 
 
RSS
Начать новую тему   Ответить на тему    Торрент-трекер NNM-Club -> Видео -> Обучающее Видео для родителей
Автор Сообщение
AlexGreenEyes ®
Стаж: 7 лет 10 мес.
Сообщений: 21
Ratio: 0,649
Поблагодарили: 304
100%
Иванов Иван | Детский массаж до года [2006] DVDRip
Автор (режиссер): Иванов Иван
Название: Детский массаж до года
Год выпуска: 2006
Жанр: Обучающее видео
Качество видео: DVDRip
Продолжительность: 00:38:54
Видеокодек: DivX
Битрейт видео: ~1604 Кбит/сек 25.00fps
Размер кадра: 576x432
Аудиокодек: MP3 2 канала
Битрейт аудио: 48000Hz stereo 108kbps

Описание:
Массаж – это один из древнейших способов исцеления, влияющий на все без исключения системы организма человека. Массаж в переводе с различных языков означает прикосновение. Массаж для детей является неотъемлемой частью их успешного физического и нервно-психического развития. Прикосновение жизненно важно для ребенка. Чем больше мы прикасаемся к малышу, тем более защищенным он себя чувствует. Во время массажа происходит колоссальное воздействие на нервную систему, через рецепторы, находящиеся на коже младенца. А нервная система, в свою очередь, стимулирует развитие всех систем детского организма, ведь они еще недостаточно сформированы к моменту рождения, а некоторые из них (например, пищеварительная, дыхательная) вовсе не функционировали.
Формат : AVI
Формат/Информация : Audio Video Interleave
Размер файла : 480 Мбайт
Продолжительность : 38 м.
Режим общего битрейта : Переменный
Общий поток : 1726 Кбит/сек
Программа кодирования : VirtualDubMod 1.5.4.1 (build 2178/release)
Библиотека кодирования : VirtualDubMod build 2178/release

Видео
Идентификатор : 0
Формат : MPEG-4 Visual
Параметр BVOP формата : 1
Параметр QPel формата : Нет
Параметр GMC формата : Без точки перехода
Параметр матрицы формата : Default (H.263)
Режим смешивания : Сжатый битовый поток
Идентификатор кодека : DX50
Идентификатор кодека/Подсказка : DivX 5
Продолжительность : 38 м.
Битрейт : 1604 Кбит/сек
Ширина : 576 пикселей
Высота : 432 пикселя
Соотношение сторон : 4:3
Частота кадров : 25,000 кадров/сек
Цветовое пространство : YUV
Субдискретизация насыщенности : 4:2:0
Битовая глубина : 8 бит
Тип развёртки : Прогрессивная
Метод сжатия : С потерями
Бит/(Пиксели*Кадры) : 0.258
Размер потока : 446 Мбайт (93%)
Библиотека кодирования : DivX 6.5.1 (UTC 2007-03)

Аудио
Идентификатор : 1
Формат : MPEG Audio
Версия формата : Version 1
Профиль формата : Layer 3
Режим : Joint stereo
Расширение режима : MS Stereo
Идентификатор кодека : 55
Идентификатор кодека/Подсказка : MP3
Продолжительность : 38 м.
Вид битрейта : Переменный
Битрейт : 108 Кбит/сек
Номинальный битрейт : 128 Кбит/сек
Каналы : 2 канала
Частота : 48,0 КГц
Метод сжатия : С потерями
Размер потока : 30,2 Мбайт (6%)
Выравнивание : Соединение по промежуткам
Продолжительность промежутка : 24 мс. (0,60 видеокадр)
Время предзагрузки промежутка : 169 мс.
Скриншоты:


Время раздачи: 24/7
Detskiy massag do 1 goda[nnm-club.ru].avi.torrent
 Торрент: Платиновая раздача  Зарегистрирован
 
Скачать


Примагнититься
 Зарегистрирован:   21 Ноя 2011 21:53:42
 Размер:   480 MB  (
 Рейтинг:   4,8 (Голосов: 30)
 Поблагодарили:   186
 Проверка:   Оформление проверено модератором 26 Ноя 2011 11:39:28
Как cкачать  ·  Как раздать  ·  Правильно оформить  ·  Поднять ратио!  
AngelSo14
Стаж: 8 лет 7 мес.
Сообщений: 43
Ratio: 4,404
100%
belarus.gif
актуально.спасибо
Показать сообщения:   
Начать новую тему   Ответить на тему    Торрент-трекер NNM-Club -> Видео -> Обучающее Видео для родителей Часовой пояс: GMT + 3
Страница 1 из 1