Классический форум-трекер
canvas not supported
Нас вместе: 4 104 132

Джулия и Джулия / Giulia e Giulia / Julia and Julia (1987) VHSRip


 
 
RSS
Начать новую тему   Ответить на тему    Торрент-трекер NNM-Club -> Архив торрентов -> Архив Классики, Старого кино, Артхаус
Автор Сообщение
fictionss ®
Стаж: 9 лет 9 мес.
Сообщений: 108
Ratio: 3,387
Поблагодарили: 3363
100%
ussr.gif
Джулия и Джулия / Giulia e Giulia / Julia and Julia (1987) VHSRip
Русское название: Джулия и Джулия
Оригинальное название: Giulia e Giulia / Julia and Julia
Год выпуска: 1987
Жанр: Драма, Триллер

Описание фильма:
Проходящая в красивом замке брачная церемония американки Джулии (Kathleen Turner) и итальянца Паоло (Gabriel Byrne) просто сочится счастьем: свёкор читает стихи, свекровь без ума от невесты, а сами молодожены не сводят друг с друга глаз. По пути домой новобрачные попадают в автокатастрофу, в результате которой Паоло погибает. Пытаясь найти себя и помогая родителям Паоло, которые вне себя от горя, Джулия решает остаться в Италии.

Проходит семь лет. Джулия ведет обычную размеренную жизнь, отрешась от всего мира. Неожиданно в ее воображении начинаются путешествия в два мира: в одном она очень счастлива, все еще замужем за Паоло и имеет сына. Но не все в этом мире идеально. Ей приходится обманывать своего мужа и отбиваться от шантажа любовника. В другом мире она обыкновенная вдова, работающая туристическим агентом и принимающая ухаживания привлекательного человека. Любовник и этот привлекательный человек есть одна и та же личность и существует в обоих мирах. Словно маятник Джулия перемещается между временными пространствами, пытаясь понять что происходит…

Режиссер: Питер Дел Монте
Актеры: Кэтлин Тернер, Гэбриел Бирн, Габриэль Ферцетти, Анджела Гудвин, Лидия Брокколино, Йорго Воягис, Мирелла Фалько, Франческа Муцио, Джон Стейнер, Бруно Каппеллетти, Маурицио Табани, Ренато Скарпа

Продолжительность: 01:37:00
Перевод: Двуголосый закадровый


Дата мировой премьеры: 03.09.1987

Видеокодек: Xvid
Битрейт видео: ~1144 kb/s
Размер кадра: 688 х 528
Качество видео: VHSRip
Аудиокодек: MP3
Битрейт аудио: 128 kb/s CBR
Общее
Полное имя: H:\Видео-закачка\Иностранные\Драма\Джулия и Джулия - Julia and Julia-Giulia e Giulia -1987_VHSRip.avi
Формат: AVI
Формат/Информация: Audio Video Interleave
Размер файла: 988 Мбайт
Продолжительность: 1 ч. 37 м.
Общий поток: 1414 Кбит/сек
Программа кодирования: VirtualDubMod 1.5.10.2 (build 2542/release)
Библиотека кодирования: VirtualDubMod build 2542/release

Видео
Идентификатор: 0
Формат: MPEG-4 Visual
Профиль формата: Advanced Simple@L5
Параметр BVOP формата: 2
Параметр QPel формата: Нет
Параметр GMC формата: Без точки перехода
Параметр матрицы формата: Default (H.263)
Режим смешивания: Сжатый битовый поток
Идентификатор кодека: XVID
Идентификатор кодека/Подсказка: XviD
Продолжительность: 1 ч. 37 м.
Битрейт: 1144 Кбит/сек
Ширина: 688 пикселей
Высота: 528 пикселей
Соотношение сторон: 4:3
Частота кадров: 25,000 кадров/сек
Цветовое пространство: YUV
Субдискретизация насыщенности: 4:2:0
Битовая глубина: 8 бит
Тип развёртки: Прогрессивная
Метод сжатия: С потерями
Бит/(Пиксели*Кадры): 0.126
Размер потока: 799 Мбайт (81%)
Библиотека кодирования: XviD 1.1.2 (UTC 2006-11-01)

Аудио #1
Идентификатор: 1
Формат: MPEG Audio
Версия формата: Version 1
Профиль формата: Layer 3
Режим: Joint stereo
Расширение режима: MS Stereo
Идентификатор кодека: 55
Идентификатор кодека/Подсказка: MP3
Продолжительность: 1 ч. 37 м.
Вид битрейта: Постоянный
Битрейт: 128 Кбит/сек
Каналы: 2 канала
Частота: 48,0 КГц
Метод сжатия: С потерями
Размер потока: 89,4 Мбайт (9%)
Выравнивание: Соединение по промежуткам
Продолжительность промежутка: 40 мс. (1,00 видеокадр)
Время предзагрузки промежутка: 504 мс.

Аудио #2
Идентификатор: 2
Формат: MPEG Audio
Версия формата: Version 1
Профиль формата: Layer 3
Режим: Joint stereo
Расширение режима: MS Stereo
Идентификатор кодека: 55
Идентификатор кодека/Подсказка: MP3
Продолжительность: 1 ч. 37 м.
Вид битрейта: Постоянный
Битрейт: 128 Кбит/сек
Каналы: 2 канала
Частота: 48,0 КГц
Метод сжатия: С потерями
Размер потока: 89,4 Мбайт (9%)
Выравнивание: Соединение по промежуткам
Продолжительность промежутка: 40 мс. (1,00 видеокадр)
Время предзагрузки промежутка: 504 мс.
Скриншоты:


Время раздачи: c 23:00 до 06:40 (каждый день)
[NNM-Club.ru]_Dzhuliya i Dzhuliya - Julia and Julia - Giulia e Giulia - 1987_VHSRip.torrent
 Торрент: Золотая раздача  Зарегистрирован
 
Зарегистрируйтесь и скачайте торрент!
19,6 KB
Free Leech
Примагнититься
 Зарегистрирован:   27 Ноя 2011 20:58:42
 Размер:   988 MB  (
 Рейтинг:   4,2 (Голосов: 10)
 Поблагодарили:   39
 Проверка:   Оформление проверено модератором 28 Ноя 2011 21:15:30
Как cкачать  ·  Как раздать  ·  Правильно оформить  ·  Поднять ратио!  
fictionss ®
Стаж: 9 лет 9 мес.
Сообщений: 108
Ratio: 3,387
Поблагодарили: 3363
100%
ussr.gif
За качество прошу не ругать! Оно даже очень сносное по сравнению с несколькими вариантами, которые гуляют по сети! Ничего лучшего похоже в нэте нет! По крайней мере я не нашел!
midebo71
Стаж: 10 лет 7 мес.
Сообщений: 69
Ratio: 63,888
100%
Откуда: Spb
russia.gif
Спасибо! Качество не самое плохое!Ожидал худшего после комментария fictionss :да:
fictionss ®
Стаж: 9 лет 9 мес.
Сообщений: 108
Ratio: 3,387
Поблагодарили: 3363
100%
ussr.gif
:приветствую: Кроме этого варианта в нете нашел через emul еще итальянский! но скачать не получилось почему-то! А что касается качества - соглашусь, т.к. видел самую распространенную версию - снятую видеокамерой с экрана телевизора! =)
Топик был перенесен из форума Зарубежные Фильмы (HD*Rip/LQ, DVDRip, SATRip, VHSRip) в форум Архив Классики и Старого кино / Артхаус

Причина переноса: Последний раз раздающий был замечен более 6 месяцев назад.

Исправил релиз - напиши ЛС FREEDONOR, дав ссылку на релиз.
Если нет ответа 24 часа - нажми на кнопку "Обратить внимание модераторов".
Показать сообщения:   
Начать новую тему   Ответить на тему    Торрент-трекер NNM-Club -> Архив торрентов -> Архив Классики, Старого кино, Артхаус Часовой пояс: GMT + 3
Страница 1 из 1