Классический форум-трекер
canvas not supported
Нас вместе: 4 079 570

Черт и три золотых волоска / The Devil`s three golden hairs (1999) DVDRip


 
 
RSS
Начать новую тему   Ответить на тему    Торрент-трекер NNM-Club -> Мультфильмы -> Зарубежные Мультфильмы для детей
Автор Сообщение
Алеся ®
Стаж: 9 лет 2 мес.
Сообщений: 154
Ratio: 111,762
Раздал: 212 GB
Поблагодарили: 5881
100%
ussr.gif
Черт и три золотых волоска / The Devil`s three golden hairs (1999) DVDRip
Русское название: Черт и три золотых волоска
Оригинальное название: The Devil`s three golden hairs
Год выпуска: 1999
Жанр: Рисованная анимация, Детский

Перевод: Дублированный

Режиссер: Крис Дойл
Персонажи: Злой Король, Принцесса

Описание фильма:
Однажды у одной бедной женщины родился необычный сыночек, необычный, потому что родился он в рубашке. И было ему предсказано, что на четырнадцатом году жизни женится он на прекрасной королевской дочери. Узнал об этом злой король и peшил мальчика погубить. Незавидная судьба ждала нашего героя, если бы не вмешались наши сказочные путешественники Йо-Йо Доктор Крок. Опасный и трудный, наполненный удивительными приключениями путь надо пройти нашим героям, чтобы сбылось доброе предсказание...

Продолжительность: 00:23:58
Качество видео: DVDRip

Видеокодек: DivX 4
Битрейт видео: ~1753 kpbs
Размер кадра: 512х416 (5:4)
Аудиокодек: MP3, 2 ch, 44.1 KHz
Битрейт аудио: 128 kpbs


Полное имя: D:\Мои видеозаписи\Черновики\Simsala\Черт и три золотых волоска.avi
Формат: AVI
Формат/Информация: Audio Video Interleave
Размер файла: 325 Мбайт
Продолжительность: 23 м.
Режим общего битрейта: Переменный
Общий поток: 1895 Кбит/сек
Программа кодирования: VirtualDubMod 1.5.10.1 Рус от Stvens Inc.™ www.stvens.amillo.net (build 2439/release)
Библиотека кодирования: VirtualDubMod build 2439/release

Видео
Идентификатор: 0
Формат: MPEG-4 Visual
Параметр BVOP формата: Да
Параметр QPel формата: Нет
Параметр GMC формата: Без точки перехода
Параметр матрицы формата: Default (H.263)
Идентификатор кодека: DIVX
Идентификатор кодека/Информация: Project Mayo
Идентификатор кодека/Подсказка: DivX 4
Продолжительность: 23 м.
Битрейт: 1753 Кбит/сек
Ширина: 512 пикселей
Высота: 416 пикселей
Соотношение сторон: 5:4
Частота кадров: 25,000 кадров/сек
Цветовое пространство: YUV
Субдискретизация насыщенности: 4:2:0
Битовая глубина: 8 бит
Тип развёртки: Прогрессивная
Метод сжатия: С потерями
Бит/(Пиксели*Кадры): 0.329
Размер потока: 301 Мбайт (92%)

Аудио
Идентификатор: 1
Формат: MPEG Audio
Версия формата: Version 1
Профиль формата: Layer 3
Идентификатор кодека: 55
Идентификатор кодека/Подсказка: MP3
Продолжительность: 23 м.
Вид битрейта: Переменный
Битрейт: 128 Кбит/сек
Каналы: 2 канала
Частота: 44,1 КГц
Метод сжатия: С потерями
Размер потока: 22,2 Мбайт (7%)
Выравнивание: Соединение по промежуткам
Продолжительность промежутка: 26 мс. (0,65 видеокадр)
Время предзагрузки промежутка: 557 мс.
Скриншоты:


Время раздачи: c 10.00 до 20.00 (по возможности)
[NNM-Club.ru]_CHert i tri zolotyih voloska.avi.torrent
 Торрент: Золотая раздача  Зарегистрирован
 
Зарегистрируйтесь и скачайте торрент!
13,1 KB

Примагнититься
 Зарегистрирован:   27 Ноя 2011 21:58:57
 Размер:   325 MB  (
 Рейтинг:   4,4 (Голосов: 20)
 Поблагодарили:   57
 Проверка:   Оформление проверено модератором 27 Ноя 2011 22:17:06
Как cкачать  ·  Как раздать  ·  Правильно оформить  ·  Поднять ратио!  
Показать сообщения:   
Начать новую тему   Ответить на тему    Торрент-трекер NNM-Club -> Мультфильмы -> Зарубежные Мультфильмы для детей Часовой пояс: GMT + 3
Страница 1 из 1