Классический форум-трекер
canvas not supported
Нас вместе: 4 083 718
Платим за отзывы

Шесть лебедей. Румпельштильцхен. |The Six Swans. Rumpelstiltskin. (1999) DVDRip


 
 
RSS
Начать новую тему   Ответить на тему    Торрент-трекер NNM-Club -> Мультфильмы -> Зарубежные Мультфильмы для детей
Автор Сообщение
Алеся ®
Стаж: 9 лет 4 мес.
Сообщений: 154
Ratio: 111,762
Раздал: 212 GB
Поблагодарили: 5892
100%
ussr.gif
Шесть лебедей. Румпельштильцхен | The Six Swans. Rumpelstiltskin (2003) DVDRip
Русское название: Шесть лебедей. Румпельштильцхен.
Оригинальное название: The Six Swans. Rumpelstiltskin.
Год выпуска: 2003
Жанр: Рисованная анимация, Детский

Перевод: Двуголосый закадровый, профессиональный

Режиссер: Крис Дойл / Chris Doyle
Персонажи: Иоланда, колдунья Молидива, принц Волк, король Фред, Дочь мельника, Горбатый карлик-волшебник

Описание фильма:
Мультипликационный сериал "Симсала Гримм" рассказывает о путешествии двух друзей - недотепы Йо-Йо и знатока сказок Крока, с помощью волшебной книги, в мир сказок братьев Гримм. Эти сказки самобытны, сюжет их знаком наизусть и безо всяких дополнений бесценен и поучителен. Ведь сказка ложь, да в ней намек...

Продолжительность: ~ 00:49:48
Качество видео: DVDRip

Видеокодек: DivX 4
Битрейт видео: ~1766 kpbs
Размер кадра: 512x416 (5:4)
Аудиокодек: MP3, 44.1 KHz, 2 ch, CBR
Битрейт аудио: 128 kpbs


Полное имя: D:\Мои видеозаписи\Черновики\Simsala\6 лебедей.avi
Формат: AVI
Формат/Информация: Audio Video Interleave
Размер файла: 679 Мбайт
Общий поток: 1906 Кбит/сек
Программа кодирования: Nandub v0.28
Библиотека кодирования: Nandub build 1757/release

Видео
Идентификатор: 0
Формат: MPEG-4 Visual
Параметр BVOP формата: Да
Параметр QPel формата: Нет
Параметр GMC формата: Без точки перехода
Параметр матрицы формата: Default (H.263)
Идентификатор кодека: DIVX
Идентификатор кодека/Информация: Project Mayo
Идентификатор кодека/Подсказка: DivX 4
Продолжительность: 49 м.
Битрейт: 1766 Кбит/сек
Ширина: 512 пикселей
Высота: 416 пикселей
Соотношение сторон: 5:4
Частота кадров: 25,000 кадров/сек
Цветовое пространство: YUV
Субдискретизация насыщенности: 4:2:0
Битовая глубина: 8 бит
Тип развёртки: Прогрессивная
Метод сжатия: С потерями
Бит/(Пиксели*Кадры): 0.332
Размер потока: 629 Мбайт (93%)

Аудио
Идентификатор: 1
Формат: MPEG Audio
Версия формата: Version 1
Профиль формата: Layer 3
Идентификатор кодека: 55
Идентификатор кодека/Подсказка: MP3
Продолжительность: 49 м.
Вид битрейта: Постоянный
Битрейт: 128 Кбит/сек
Каналы: 2 канала
Частота: 44,1 КГц
Метод сжатия: С потерями
Размер потока: 45,6 Мбайт (7%)
Выравнивание: Соединение по промежуткам
Продолжительность промежутка: 26 мс. (0,65 видеокадр)
Время предзагрузки промежутка: 496 мс.
Библиотека кодирования: LAME3.93
Настройки программы: -m s -V 4 -q 2 -lowpass 13.8 -b 128
Скриншоты:


Время раздачи: с 10:00 до 20.00 (по возможности)
[NNM-Club.ru]_6 lebedey.avi.torrent
 Торрент: Золотая раздача  Зарегистрирован
 
Зарегистрируйтесь и скачайте торрент!
13,7 KB

 Зарегистрирован:   28 Ноя 2011 19:07:20
 Размер:   679 MB  (
 Рейтинг:   4,8 (Голосов: 17)
 Поблагодарили:   79
 Проверка:   Оформление проверено модератором 28 Ноя 2011 21:19:41
Как cкачать  ·  Как раздать  ·  Правильно оформить  ·  Поднять ратио!  
Loading...
stoyanl
Стаж: 9 лет
Сообщений: 3
Ratio: 7,584
1.96%
Станьте кто скачал на раздачу!!!!!
89,2% и стало как вкопано
Дайте до качать. Большое спасибо!!!!!!!!!!!!!!

Добавлено спустя 29 минут 55 секунд:

Всем БОЛЬШОЕ СПАСИБО кто стоял на раздаче и дал докачать .
Теперь будем смотреть
Показать сообщения:   
Начать новую тему   Ответить на тему    Торрент-трекер NNM-Club -> Мультфильмы -> Зарубежные Мультфильмы для детей Часовой пояс: GMT + 3
Страница 1 из 1