Классический форум-трекер
canvas not supported
Нас вместе: 4 079 316

Шлюха / Jade (1995) BDRip [H.264/1080p] [PR]


 
 
RSS
Начать новую тему   Ответить на тему    Торрент-трекер NNM-Club -> Зарубежное кино -> Зарубежные Фильмы (HD, UHD-LQ)
Автор Сообщение
Всеволод Александрович ®
Стаж: 9 лет 11 мес.
Сообщений: 173
Ratio: 21,76
Раздал: 1,809 TB
Поблагодарили: 13991
100%
Откуда: Svetlogorsk
belarus.gif
Шлюха / Jade (1995) BDRip [H.264/1080p] "Some fantasies go too far"
Производство: США / Paramount Pictures, Robert Evans Company
Жанр: Триллер, Драма, Криминал

Режиссер: Уильям Фридкин
Продюсер: Гари Эделсон, Крэйг Баумгартен, Роберт Эванс
Актеры: Дэвид Карузо, Линда Фиорентино, Чазз Пальминтери, Ричард Кренна, Майкл Бин, Донна Мерфи, Кеннет Р. Кинг, Холт Маккэллани, Дэвид Хант, Энджи Эверхарт

Описание:
Есть люди, которые полагают, что существуют лишь три вещи, заставляющие крутиться этот прогнивший и порочный мир — деньги, секс и власть. Все остальное, включая жалость, совесть и честь, не имеет для них абсолютно никакого значения. Эти люди готовы пойти на многое во имя своих трех идолов. Но иногда случается, что в своих желаниях они заходят слишком далеко…
Сотрудник прокуратуры Дэйвид Корелли расследует чудовищное по своей жестокости убийство. В своей шикарной вилле был страшно изуродован топором пожилой миллионер.
Следователь Корелли — идеальная кандидатура для разрешения столь сложного преступления. Но есть лишь одна маленькая загвоздка: никто не хочет, чтобы это преступление было раскрыто…


Возраст: 16+ (зрителям, достигшим 16 лет)
Рейтинг MPAA: R (лицам до 17 лет обязательно присутствие взрослого)

Продолжительность: 01:34:44
Качество видео: BDRip
Перевод: Профессиональный многоголосый (ТВ-3, 5 канал), Авторский (Петр Карцев)
Субтитры: отсутствуют

Видео: AVC/H.264, 1920х1080 (16:9), ~8400 Kbps
Аудио#1: AC3, 6 ch, 448 Kbps - Русский многоголосый (ТВ-3)
Аудио#2: AC3, 2 ch, 192 Kbps - Русский многоголосый (Петербург 5 канал)
Аудио#3: AC3, 2 ch, 192 Kbps - Русский авторский (Петр Карцев)
Аудио#4: DTS, 6 ch, 1510 Kbps - English (Оригинал)

Format : Matroska
File size : 7.11 GiB
Duration : 1h 34mn
Overall bit rate : 10.7 Mbps
Movie name : Jade.1995.1080p.BluRay.x264-LCHD
Encoded date : UTC 2010-10-06 18:34:31
Writing application : mkvmerge v3.2.0 ('Beginnings') built on Feb 12 2010 16:46:17
Writing library : libebml v0.7.9 + libmatroska v0.8.1

Video
ID : 1
Format : AVC
Format/Info : Advanced Video Codec
Format profile : High@L4.1
Format settings, CABAC : Yes
Format settings, ReFrames : 4 frames
Muxing mode : Container profile=Unknown@4.1
Codec ID : V_MPEG4/ISO/AVC
Duration : 1h 34mn
Bit rate : 8 400 Kbps
Width : 1 920 pixels
Height : 1 080 pixels
Display aspect ratio : 16:9
Frame rate : 23.976 fps
Color space : YUV
Chroma subsampling : 4:2:0
Bit depth : 8 bits
Scan type : Progressive
Bits/(Pixel*Frame) : 0.169
Stream size : 5.42 GiB (76%)
Writing library : x264 core 92 r1510 33d382a
Encoding settings : cabac=1 / ref=4 / deblock=1:-1:-1 / analyse=0x3:0x113 / me=umh / subme=7 / psy=1 / psy_rd=1.00:0.00 / mixed_ref=1 / me_range=16 / chroma_me=1 / trellis=2 / 8x8dct=1 / cqm=0 / deadzone=21,11 / fast_pskip=1 / chroma_qp_offset=-2 / threads=6 / sliced_threads=0 / nr=0 / decimate=1 / interlaced=0 / constrained_intra=0 / bframes=3 / b_pyramid=2 / b_adapt=2 / b_bias=0 / direct=3 / wpredb=1 / wpredp=2 / keyint=250 / keyint_min=25 / scenecut=40 / intra_refresh=0 / rc_lookahead=40 / rc=2pass / mbtree=1 / bitrate=8400 / ratetol=1.0 / qcomp=0.60 / qpmin=10 / qpmax=51 / qpstep=4 / cplxblur=20.0 / qblur=0.5 / vbv_maxrate=50000 / vbv_bufsize=50000 / ip_ratio=1.40 / aq=1:1.00 / nal_hrd=none
Language : English

Audio #1
ID : 2
Format : AC-3
Format/Info : Audio Coding 3
Mode extension : CM (complete main)
Codec ID : A_AC3
Duration : 1h 34mn
Bit rate mode : Constant
Bit rate : 448 Kbps
Channel(s) : 6 channels
Channel positions : Front: L C R, Side: L R, LFE
Sampling rate : 48.0 KHz
Bit depth : 16 bits
Stream size : 304 MiB (4%)
Title : ТВ3
Language : Russian

Audio #2
ID : 3
Format : AC-3
Format/Info : Audio Coding 3
Mode extension : CM (complete main)
Codec ID : A_AC3
Duration : 1h 34mn
Bit rate mode : Constant
Bit rate : 192 Kbps
Channel(s) : 2 channels
Channel positions : Front: L R
Sampling rate : 48.0 KHz
Bit depth : 16 bits
Stream size : 130 MiB (2%)
Title : Петербург 5 канал
Language : Russian

Audio #3
ID : 4
Format : AC-3
Format/Info : Audio Coding 3
Mode extension : CM (complete main)
Codec ID : A_AC3
Duration : 1h 34mn
Bit rate mode : Constant
Bit rate : 192 Kbps
Channel(s) : 2 channels
Channel positions : Front: L R
Sampling rate : 48.0 KHz
Bit depth : 16 bits
Stream size : 130 MiB (2%)
Title : Петр Карцев
Language : Russian

Audio #4
ID : 5
Format : DTS
Format/Info : Digital Theater Systems
Codec ID : A_DTS
Duration : 1h 34mn
Bit rate mode : Constant
Bit rate : 1 510 Kbps
Channel(s) : 6 channels
Channel positions : Front: L C R, Side: L R, LFE
Sampling rate : 48.0 KHz
Bit depth : 24 bits
Stream size : 1 023 MiB (14%)
Language : English
Скриншоты:


Все одноименные релизы в КлубеВремя раздачи: 24/7 (минимум до первых 5 скачавших)
[NNM-Club.ru]_SHlyuha.1995.BDRip.1080p.mkv{nnm-clud}..torrent
 Торрент: Платиновая раздача  Зарегистрирован
 
Скачать


Примагнититься
 Зарегистрирован:   24 Мар 2019 19:14:18
 Размер:   7,11 GB  (
 Рейтинг:   4,5 (Голосов: 29)
 Поблагодарили:   160
 Проверка:   Оформление проверено модератором 24 Мар 2019 22:53:20
Как cкачать  ·  Как раздать  ·  Правильно оформить  ·  Поднять ратио!  
Sprint
Стаж: 12 лет 7 мес.
Сообщений: 688
Ratio: 1,278
34.45%
usa.gif
Фильм шикарный!
Но с нашими переводчиками писец просто.
Смотреть не хочется.
igol10
Стаж: 9 лет 2 мес.
Сообщений: 320
Ratio: 0,89
100%
ussr.gif
спасибо за релиз,заинтересовал, но возьму чуть позже!

_________________
То, что человек не всегда пользуется мозгами, не значит, что их у него нет....
best26-09-84
Стаж: 6 лет 6 мес.
Сообщений: 448
Ratio: 12,654
100%
А фильм отличный, смело могу порекомендовать. Единственное, что смотрел не в этом переводе.
Показать сообщения:   
Начать новую тему   Ответить на тему    Торрент-трекер NNM-Club -> Зарубежное кино -> Зарубежные Фильмы (HD, UHD-LQ) Часовой пояс: GMT + 3
Страница 1 из 1