Классический форум-трекер
canvas not supported
Нас вместе: 4 077 957

Битва Титанов / Clash of the Titans (1981) BDRip


 
 
RSS
Начать новую тему   Ответить на тему    Торрент-трекер NNM-Club -> Классика кино и Старые фильмы до 90-х -> Старые Зарубежные Фильмы (HD*Rip/LQ, DVDRip, SATRip, VHSRip)
Автор Сообщение
Dobrenko ®
Стаж: 11 лет
Сообщений: 6503
Ratio: 28,506
Поблагодарили: 741224
100%
Откуда: Одесса-Москва
Битва Титанов / Clash of the Titans
Русское название: Битва Титанов
Оригинальное название: Clash of the Titans
Год выпуска: 1981

Жанр: Фэнтези, Приключения

Описание фильма:
Персей - смертный сын Зевса, пытаясь спасти свою возлюбленную Андромеду от жестокого заклятия, сражается с чудовищами. К счастью, у Персея есть свои волшебные помощники: прекрасный крылатый конь и удивительно умная сова. Но даже эти волшебные силы не всегда в силах помочь герою в борьбе с могущественными врагами и спасти свою любимую!

Режиссер: Десмонд Дэвис
Актеры: Лоуренс Оливье, Клер Блум, Мэгги Смит, Урсула Андресс, Джек Гвиллим, Сьюзэн Флитвуд, Пэт Роач, Гарри Хэмлин, Джуди Баукер, Бургесс Мередит

Качество видео: BDRip (источник: BDRemux / 1080p)
Продолжительность: 01:57:56

Субтитры: Русские, Английские SDH (отдельно)

Перевод: Профессиональный (многоголосый, закадровый) VHS

Видео: XviD build 64, 704x400 (1.76:1), 2248 kbps avg, 0.33 bit/pix
Аудио 1: 48 kHz, AC3, 2/0 (L,R) ch, 192.00 kbps avg | MVO
Аудио 2: 48 kHz, AC3, 2/0 (L,R) ch, 192.00 kbps avg | Orig (английский)

Общее
Полное имя : C:\ZIM\Torrents\Titans\Bitva_Titanov_BDRip\Bitva.Titanov.1981.BDRip.avi
Формат : AVI
Формат/Информация : Audio Video Interleave
Профиль формата : OpenDML
Размер файла : 2,18 Гбайт
Продолжительность : 1 ч. 57 м.
Общий поток : 2650 Кбит/сек
Название фильма : Битва Титанов / Clash of the Titans (1981) BDRip
Режиссёр : Flynn82
Жанр : Fantasy/Action/Adventure/Family
Программа кодирования : VirtualDubMod 1.5.10.2 (build 2542/release)
Правообладатель : hqclub

Видео
Идентификатор : 0
Формат : MPEG-4 Visual
Профиль формата : Advanced Simple@L5
Параметр BVOP формата : 1
Параметр QPel формата : Нет
Параметр GMC формата : Без точки перехода
Параметр матрицы формата : Выборочная
Идентификатор кодека : XVID
Идентификатор кодека/Подсказка : XviD
Продолжительность : 1 ч. 57 м.
Битрейт : 2248 Кбит/сек
Ширина : 704 пикселя
Высота : 400 пикселей
Соотношение сторон : 16:9
Частота кадров : 23,976 кадра/сек
Цветовое пространство : YUV
Субдискретизация насыщенности : 4:2:0
Битовая глубина : 8 бит
Тип развёртки : Прогрессивная
Метод сжатия : С потерями
Бит/(Пиксели*Кадры) : 0.333
Размер потока : 1,85 Гбайт (85%)
Библиотека кодирования : XviD 64

Аудио #1
Идентификатор : 1
Формат : AC-3
Формат/Информация : Audio Coding 3
Расширение режима : CM (complete main)
Идентификатор кодека : 2000
Продолжительность : 1 ч. 57 м.
Вид битрейта : Постоянный
Битрейт : 192 Кбит/сек
Каналы : 2 канала
Расположение каналов : Front: L R
Частота : 48,0 КГц
Битовая глубина : 16 бит
Метод сжатия : С потерями
Задержка видео : 1 с. 800 мс.
Размер потока : 162 Мбайт (7%)
Выравнивание : Разделение по промежуткам
Продолжительность промежутка : 42 мс. (1,00 видеокадр)
Время предзагрузки промежутка : 500 мс.

Аудио #2
Идентификатор : 2
Формат : AC-3
Формат/Информация : Audio Coding 3
Расширение режима : CM (complete main)
Идентификатор кодека : 2000
Продолжительность : 1 ч. 57 м.
Вид битрейта : Постоянный
Битрейт : 192 Кбит/сек
Каналы : 2 канала
Расположение каналов : Front: L R
Частота : 48,0 КГц
Битовая глубина : 16 бит
Метод сжатия : С потерями
Размер потока : 162 Мбайт (7%)
Выравнивание : Разделение по промежуткам
Продолжительность промежутка : 42 мс. (1,00 видеокадр)
Время предзагрузки промежутка : 500 мс.





Время раздачи: с 11.00 до 23.00 мск.
[NNM-Club.ru]_Bitva_Titanov_BDRip.torrent
 Торрент: Платиновая раздача  Зарегистрирован
 
Скачать


Примагнититься
 Зарегистрирован:   07 Дек 2011 10:56:49
 Размер:   2,18 GB  (
 Рейтинг:   4,6 (Голосов: 39)
 Поблагодарили:   113
 Проверка:   Оформление проверено модератором 07 Дек 2011 11:09:35
Как cкачать  ·  Как раздать  ·  Правильно оформить  ·  Поднять ратио!  
russur
Стаж: 8 лет 10 мес.
Сообщений: 137
Ratio: 5,234
3.95%
как качество, кто-нибудь качал?

Добавлено спустя 3 часа 14 минут 27 секунд:

скачал фильм, потом только понял, почему никто не качает, год не сразу заметил.
качество норм
kdmfilm
Стаж: 9 лет 1 мес.
Сообщений: 58
Ratio: 1,596
0%
Ну я бы на вашем месте посмотрел, так как все новые фильмы америки, это хорошо забытые её старые фильмы)
Maleva55
Стаж: 9 лет 7 мес.
Сообщений: 68
Ratio: 3,316
100%
:респект:
Показать сообщения:   
Начать новую тему   Ответить на тему    Торрент-трекер NNM-Club -> Классика кино и Старые фильмы до 90-х -> Старые Зарубежные Фильмы (HD*Rip/LQ, DVDRip, SATRip, VHSRip) Часовой пояс: GMT + 3
Страница 1 из 1