Классический форум-трекер
canvas not supported
Нас вместе: 4 079 070

Дружная компания (21 серия) / Buttercup wood (2008) TVRip


 
 
RSS
Начать новую тему   Ответить на тему    Торрент-трекер NNM-Club -> Мультфильмы -> Зарубежные Мультфильмы для детей
Автор Сообщение
irinanesh ®
Стаж: 8 лет
Сообщений: 15
Ratio: 1,001
Поблагодарили: 49
100%
russia.gif
Дружная компания / Buttercup wood (2008) TVRip
Русское название: Дружная компания
Оригинальное название: Buttercup wood
Год выпуска: 2008
Жанр: Детский, Рисованная анимация

Перевод: Дублированный



Режиссер: Джонатан Тинь Чо Чуень
Персонажи: Шанталь — красивая бабочка, Луи — жизнерадостная оса, Дитель — жучок в кепке

Описание фильма:
Оса, бабочка и жук — неразлучные друзья. Каждый новый эпизод мультсериала раскрывает характер этих героев, их особенности и пристрастия. Иногда из-за разных представлений о мире в маленькой компании возникают конфликты и споры, порой друзьям грозит опасность, но малыши-насекомые выдерживают все испытания и становятся взрослее и умнее. Мультфильм иллюстрирует, как нужно вести себя в компании, — уважать друг друга, прислушиваться к мнениям друзей, делиться и творить добрые дела. Эта красочная анимация также учит ставить цели и добиваться их выполнения, быть настойчивым и стремиться преодолевать трудности.
Нелёгкое задание
Легко ли быть няней
Прогулка под землёй
Конкурс талантов
Неудачный день Луи
Лесное волшебство
Снайдер становится добрым
Тайна чёрных болот
Кто поверит комару
Весёлый поход
Муравей Сидни
Нелёгкий день
Что умеют улитки
Королева Шанталь
Дитель и волшебный дракон
Большие соревнования
Знакомство с Джорданом
Тайна водяной мельницы
Непоседливые гости
День рождения Дителя
Лесные сокровища
Полное имя : Dryznaia.kompania.nelegkoe.zadanie.avi
Формат : AVI
Формат/Информация : Audio Video Interleave
Размер файла : 150 Мбайт
Продолжительность : 12 м.
Общий поток : 1637 Кбит/сек

Видео
Идентификатор : 0
Формат : MPEG-4 Visual
Профиль формата : Advanced Simple@L5
Параметр BVOP формата : 2
Параметр QPel формата : Нет
Параметр GMC формата : Без точки перехода
Параметр матрицы формата : Default (H.263)
Идентификатор кодека : XVID
Идентификатор кодека/Подсказка : XviD
Продолжительность : 12 м.
Битрейт : 1496 Кбит/сек
Ширина : 640 пикселей
Высота : 480 пикселей
Соотношение сторон : 4:3
Частота кадров : 25,000 кадров/сек
Цветовое пространство : YUV
Субдискретизация насыщенности : 4:2:0
Битовая глубина : 8 бит
Тип развёртки : Прогрессивная
Метод сжатия : С потерями
Бит/(Пиксели*Кадры) : 0.195
Размер потока : 137 Мбайт (91%)
Библиотека кодирования : XviD 1.2.1 (UTC 2008-12-04)

Аудио
Идентификатор : 1
Формат : MPEG Audio
Версия формата : Version 1
Профиль формата : Layer 3
Идентификатор кодека : 55
Идентификатор кодека/Подсказка : MP3
Продолжительность : 12 м.
Вид битрейта : Постоянный
Битрейт : 128 Кбит/сек
Каналы : 2 канала
Частота : 48,0 КГц
Метод сжатия : С потерями
Размер потока : 11,7 Мбайт (8%)
Выравнивание : Разделение по промежуткам
Продолжительность промежутка : 24 мс. (0,60 видеокадр)
Продолжительность: 21 x 00:12:48
Качество видео: TVRip

Видеокодек: Xvid
Битрейт видео: ~1535 kbps
Размер кадра: 640x480
Аудиокодек: MP3, 2.0
Битрейт аудио: 128.00 kbps

Скриншоты:


Время раздачи: c 10:00 до 23:00
[NNM-Club.ru]_Druzhnaya kompaniya.torrent
 Торрент: Бронзовая раздача  Зарегистрирован
 
Зарегистрируйтесь и скачайте торрент!
16,7 KB

 Зарегистрирован:   18 Фев 2012 14:02:25
 Размер:   2,91 GB  (
 Рейтинг:   4,5 (Голосов: 11)
 Поблагодарили:   49
 Проверка:   Оформление проверено модератором 18 Фев 2012 14:36:30
Как cкачать  ·  Как раздать  ·  Правильно оформить  ·  Поднять ратио!  
Загрузка...
irinanesh ®
Стаж: 8 лет
Сообщений: 15
Ratio: 1,001
Поблагодарили: 49
100%
russia.gif
моя дочка смотрит этот мультик с удовольствием с тех пор как ей был 1 годик. Хороший мультик, советую
denver7979
Зам. Куратора Детского.
Модератор Видео.
RG Всё лучшее - детям!
 
Стаж: 8 лет 10 мес.
Сообщений: 7662
Ratio: 501,291
Раздал: 34,54 TB
Поблагодарили: 311998
100%
Откуда: Земля
ussr.gif
irinanesh
Что изменилось? Какие серии и сколько добавлены? Необходимо информировать пользователей об этом при обновлении раздачи!

_________________
§ Основной FAQ & Все ПравилаНабор в RG NNM-Club Всё для детей, пап и мам
* Все вопросы в ☛ ЛС по вашим релизам ☣
обязательно со ссылками на темы, о которых идёт речь ☺
irinanesh ®
Стаж: 8 лет
Сообщений: 15
Ratio: 1,001
Поблагодарили: 49
100%
russia.gif
В релиз добавились 15 новых серий
Andronikus
Стаж: 9 лет 1 мес.
Сообщений: 68
Ratio: 62,771
100%
russia.gif
Дружная компания (21 серия) / Buttercup wood (2008) TVRip - а где еще 4 серии?
gurinov
Стаж: 8 лет 2 мес.
Сообщений: 33
Ratio: 0,595
Поблагодарили: 11
25%
russia.gif
Andronikus
все тут намести смотри лучше.
vbSerGanT
Стаж: 9 лет
Сообщений: 2
Ratio: 0,963
0.53%
Где скорость 52,5% и стоп, поддай газу
Mikmay
Стаж: 9 лет
Сообщений: 78
Ratio: 7,802
Раздал: 558 GB
100%
Откуда: Киев
ukraine.gif
Сча докачаю с   встану на раздачу

Добавлено спустя 1 час 15 минут 29 секунд:

у меня 26 серий закачано
Показать сообщения:   
Начать новую тему   Ответить на тему    Торрент-трекер NNM-Club -> Мультфильмы -> Зарубежные Мультфильмы для детей Часовой пояс: GMT + 3
Страница 1 из 1