Классический форум-трекер
canvas not supported
Нас вместе: 4 083 575
Платим за отзывы

Кожа, в которой я живу / La piel que habito (2011) HDRip


Страницы:  1, 2, 3, 4, 5, 6  След. 
 
RSS
Начать новую тему   Ответить на тему    Торрент-трекер NNM-Club -> Зарубежное кино -> Зарубежные Фильмы (HD*Rip/LQ, DVDRip, SATRip, VHSRip)
Автор Сообщение
MrJARVIS ®
Стаж: 8 лет 1 мес.
Сообщений: 172
Ratio: 53,7
Раздал: 1,533 TB
Поблагодарили: 30646
100%
russia.gif
Кожа, в которой я живу / La piel que habito (2011) HDRip
Русское название: Кожа, в которой я живу
Оригинальное название: La piel que habito
Год выпуска: 2011
Производство: Испания, Canal+ Espana, El Deseo S.A.
Жанр: Триллер, Драма, Мелодрама, Фантастика
Перевод: Дублированный [Лицензия]


Дата мировой премьеры: 19 мая 2011
Дата российской премьеры: 22 сентября 2011, «Парадиз»
Дата выхода DVD релиза: 13 декабря 2011, «Парадиз Видео»

Режиссер: Педро Альмодовар
Продюсер: Агустин Альмодовар, Эстер Гарсия, Барбара Пейро Асо
Актеры: Антонио Бандерас, Елена Анайя, Бланка Суарез, Жан Корнет, Мариса Паредес, Барбара Ленни, Фернандо Кайо, Эдуард Фернандес, Роберто Аламо, Агустин Альмодовар

Описание фильма:
Гений пластической хирургии д-р Ледгард, путем дерзких генетических экспериментов создавший искусственную человеческую кожу, ведет охоту на подонка, который много лет назад изнасиловал его дочь. Жестокость его мести не знает предела…

Продолжительность: 02:00:10
Качество видео: HDRip

Видеокодек: XviD
Битрейт видео: ~2119 Кбит/сек
Размер кадра: 720x384
Аудиокодек: AC3 5.1
Битрейт аудио: 448 Кбит/сек

Общее
Полное имя : D:\Торренты!\Кожа, в которой я живу.2011.HDRip.avi
Формат : AVI
Формат/Информация : Audio Video Interleave
Профиль формата : OpenDML
Размер файла : 2,17 Гбайт
Продолжительность : 2 ч. 0 м.
Общий поток : 2579 Кбит/сек
Программа кодирования : VirtualDubMod 1.5.10.3 | (build 2550/release)
Библиотека кодирования : VirtualDubMod build 2550/release

Видео
Идентификатор : 0
Формат : MPEG-4 Visual
Профиль формата : Advanced Simple@L5
Параметр BVOP формата : 1
Параметр QPel формата : Нет
Параметр GMC формата : Без точки перехода
Параметр матрицы формата : Выборочная
Идентификатор кодека : XVID
Идентификатор кодека/Подсказка : XviD
Продолжительность : 2 ч. 0 м.
Битрейт : 2119 Кбит/сек
Ширина : 720 пикселей
Высота : 384 пикселя
Соотношение сторон : 16:9
Частота кадров : 24,000 кадра/сек
Цветовое пространство : YUV
Субдискретизация насыщенности : 4:2:0
Битовая глубина : 8 бит
Тип развёртки : Прогрессивная
Метод сжатия : С потерями
Бит/(Пиксели*Кадры) : 0.319
Размер потока : 1,78 Гбайт (82%)
Библиотека кодирования : XviD 64

Аудио
Идентификатор : 1
Формат : AC-3
Формат/Информация : Audio Coding 3
Расширение режима : CM (complete main)
Идентификатор кодека : 2000
Продолжительность : 2 ч. 0 м.
Вид битрейта : Постоянный
Битрейт : 448 Кбит/сек
Каналы : 6 каналов
Расположение каналов : Front: L C R, Side: L R, LFE
Частота : 48,0 КГц
Битовая глубина : 16 бит
Метод сжатия : С потерями
Размер потока : 385 Мбайт (17%)
Выравнивание : Разделение по промежуткам
Продолжительность промежутка : 42 мс. (1,00 видеокадр)
Время предзагрузки промежутка : 500 мс.


Скриншоты:

Время раздачи: C 18:00 до 23:00

Kozha.v.kotoroj.ja.zhivu.2011.HDRip_nnm-club.ru.avi.torrent
 Торрент: Платиновая раздача  Зарегистрирован
 
Скачать


Примагнититься
 Зарегистрирован:   10 Дек 2011 21:02:52
 Размер:   2,17 GB  (
 Рейтинг:   4,6 (Голосов: 316)
 Поблагодарили:   1725
 Проверка:   Оформление проверено модератором 11 Дек 2011 10:10:20
Как cкачать  ·  Как раздать  ·  Правильно оформить  ·  Поднять ратио!  
Mirell
Стаж: 8 лет 11 мес.
Сообщений: 262
Ratio: 6
Раздал: 2,266 TB
100%
burkinafaso.gif
Спасибо за фильм! Судя по скринам - качества куда лучше прилепленого в топик DVDRip на 2 гига!
life4kill
Стаж: 9 лет 10 мес.
Сообщений: 496
Ratio: 32,056
Раздал: 10,47 TB
Поблагодарили: 2805
100%
Откуда: зі Львова я!
ukraine.gif
посмотрел. Понравился. Все-таки эти ученые прибацаные по жизни. Автору спасибо !
ver2all
Стаж: 11 лет 2 мес.
Сообщений: 6
Ratio: 2,405
100%
ukraine.gif
фильм - редкое разложившийся помет морских птиц и летучих мышей, применяемый как азотное и фосфорное удобрение.
llexxx
Стаж: 9 лет 11 мес.
Сообщений: 19
Ratio: 2,442
9.09%
Не обычный разворот...
Альвадор
Стаж: 9 лет
Сообщений: 44
Ratio: 29,135
100%
uk.gif
жесть какая то.

_________________
haha.dead
digitallez
Стаж: 10 лет 3 мес.
Сообщений: 248
Ratio: 20,344
Поблагодарили: 78
25.74%
Откуда: Одесса
ussr.gif
хороший фильм.
veek
Стаж: 8 лет 11 мес.
Сообщений: 7
Ratio: 1,259
Поблагодарили: 4
100%
Это ж какую больною голову надо иметь чтобы это снять? Долго ничего кушать не мог. До сих пор тошно.
login303
Стаж: 8 лет 7 мес.
Сообщений: 11
Ratio: 4,693
2.43%
ukraine.gif
я такой муры еще не вдел!!!!ну кому такая чущь может понравиться?????
anndrew111
Стаж: 9 лет 5 мес.
Сообщений: 10
Ratio: 0,842
1.42%
Крутой фильм
Kyron
Стаж: 11 лет 10 мес.
Сообщений: 26
Ratio: 1,857
100%
russia.gif
Альмадовар-верен себе,те кому понравился хоть один его фильм будут в восторге!Мне очень понравился,хоть я и не отношусь к эстетам.....
mikakost
Стаж: 10 лет 8 мес.
Сообщений: 389
Ratio: 80,638
Поблагодарили: 5647
100%
Откуда: Ереван
armenia.gif
После просмотра фильма я в смешанных чувствах. Даже не знаю как описать фильм: не стандартный фильм с закрученной сюжетной линией. И понравился и в то же время нет

_________________
SerJk3
Стаж: 8 лет
Сообщений: 1
Ratio: 4,658
0%
фильм шикарный.очень понравился и такого разворота событий вообще не ждал.думаю не всем понравится конечно, но истинным ценителем стоит посмотреть) :поклоняется:
loox
Стаж: 10 лет 2 мес.
Сообщений: 3
Ratio: 3,029
17.5%
Итальянское искусство всегда не однозначно))
Отличный фильм.
affemitwaffe3
Стаж: 8 лет 1 мес.
Сообщений: 1
Ratio: 0,016
0%
фильм интересно снят, было очень интересно смотреть, но БОЛьШоЕ НО это боляная история, какаято психологически больная история
Показать сообщения:   
Начать новую тему   Ответить на тему    Торрент-трекер NNM-Club -> Зарубежное кино -> Зарубежные Фильмы (HD*Rip/LQ, DVDRip, SATRip, VHSRip) Часовой пояс: GMT + 3
Страницы:  1, 2, 3, 4, 5, 6  След.
Страница 1 из 6