Классический форум-трекер
canvas not supported
Нас вместе: 4 078 969

Гений дзюдо / Judo Saga / Sugata Sanshiro (1965) DVDRip


Страницы:  1, 2  След. 
 
RSS
Начать новую тему   Ответить на тему    Торрент-трекер NNM-Club -> Зарубежное кино -> Азиатское кино (HD*Rip/LQ, DVDRip, SATRip, VHSRip)
Автор Сообщение
val8719 ®
Релизер
Стаж: 10 лет 6 мес.
Сообщений: 1204
Ratio: 2040,031
Поблагодарили: 114471
100%
Откуда: Kolomna
ussr.gif
Гений дзюдо / Judo Saga / Sugata Sanshiro (1965) DVDRip
Год выпуска: 1965
Производство: Япония / Kurosawa Production Co., Takarazuka Eiga Company Ltd., Toho Company
Жанр: Драма, Боевик (Боевые искусства)

Описание фильма:
События начинаются в Токио 1882 года. Сансуро Сугата, деревенский юноша, приезжает в столицу, чтобы обучаться джиу-джитсу. Мастера разных школ борются за место инструктора школ боевых искусств при городской полиции. Тот, кто станет инструктором, сможет продвигать свою школу, обеспечив ей официальную поддержку. Мастер, к которому попал Сансиро, со своими учениками нападают на мастера школы дзюдо, соперника на место инструктора. Благородство и мастерство, с которым тот отразил нападение, поразили юношу. Естественно, юноша принимает решение изучать дзюдо. Всю свою жизнь он посвятил дзюдо, найдя в нем не только боевое искусство, но и путь к гармонии и духовному совершенству. О противостоянии этих двух видов борьбы рассказывает эта замечательная картина...

Режиссер: Сэйитиро Утикава
Актеры: Юдзо Каяма, Цутому Ямадзаки, Эйдзи Окада, Такаси Симура, Бокудзэн Хидари, Дайскэ Като, Юмико Коконоэ, Тацухико Хари, Кинджи Мацуеда, Хироши Аояма

Продолжительность: 02:32:06
Качество видео: DVDRip
Перевод: Дублированный



Дата мировой премьеры: 29 мая 1965
Дата выхода DVD релиза: 15 сентября 2011, «Cinema Prestige»

Видео: MPEG-4 DivX 5, 720x304 (2.35:1), 25.000 fps, ~1672 Kb/s (0.306 bit/pixel)
Аудио: AC-3, 48.0 KHz, 2.0 ch, 192 Kb/s, CBR | Russian
Код:
Общее
Полное имя                               : Heniy.Dzudo.DVDRip.avi
Формат                                   : AVI
Формат/Информация                        : Audio Video Interleave
Профиль формата                          : OpenDML
Размер файла                             : 1,99 Гбайт
Продолжительность                        : 2 ч. 32 м.
Общий поток                              : 1877 Кбит/сек
Программа кодирования                    : VirtualDubMod 1.5.10.3 | www.virtualdub-fr.org || (build 2550/release)
Библиотека кодирования                   : VirtualDubMod build 2550/release

Видео
Идентификатор                            : 0
Формат                                   : MPEG-4 Visual
Профиль формата                          : Advanced Simple@L5
Параметр BVOP формата                    : 1
Параметр QPel формата                    : Нет
Параметр GMC формата                     : Без точки перехода
Параметр матрицы формата                 : Default (H.263)
Идентификатор кодека                     : DX50
Идентификатор кодека/Подсказка           : DivX 5
Продолжительность                        : 2 ч. 32 м.
Битрейт                                  : 1672 Кбит/сек
Ширина                                   : 720 пикселей
Высота                                   : 304 пикселя
Соотношение сторон                       : 2,35:1
Частота кадров                           : 25,000 кадров/сек
Цветовое пространство                    : YUV
Субдискретизация насыщенности            : 4:2:0
Битовая глубина                          : 8 бит
Тип развёртки                            : Прогрессивная
Метод сжатия                             : С потерями
Бит/(Пиксели*Кадры)                      : 0.306
Размер потока                            : 1,78 Гбайт (89%)
Библиотека кодирования                   : XviD 58

Аудио
Идентификатор                            : 1
Формат                                   : AC-3
Формат/Информация                        : Audio Coding 3
Расширение режима                        : CM (complete main)
Параметр Endianness формата              : Big
Идентификатор кодека                     : 2000
Продолжительность                        : 2 ч. 32 м.
Вид битрейта                             : Постоянный
Битрейт                                  : 192 Кбит/сек
Каналы                                   : 2 канала
Расположение каналов                     : Front: L R
Частота                                  : 48,0 КГц
Битовая глубина                          : 16 бит
Метод сжатия                             : С потерями
Размер потока                            : 209 Мбайт (10%)
Выравнивание                             : Разделение по промежуткам
Продолжительность промежутка             : 40  мс. (1,00 видеокадр)
Время предзагрузки промежутка            : 500  мс.
Скриншоты:


Реставрация от: Viсtоr
[nnm-club.ru]_Heniy_Dzudo_DVDRip.torrent
 Торрент: Платиновая раздача  Зарегистрирован
 
Скачать


Примагнититься
 Зарегистрирован:   13 Дек 2011 23:18:33
 Размер:   1,99 GB  (
 Рейтинг:   4,8 (Голосов: 99)
 Поблагодарили:   300
 Проверка:   Оформление проверено модератором 15 Дек 2011 09:10:40
Как cкачать  ·  Как раздать  ·  Правильно оформить  ·  Поднять ратио!  
Загрузка...
farmazone
Стаж: 10 лет
Сообщений: 88
Ratio: 1,228
100%
ussr.gif
Когда я был еще совсем маленьким, отец рассказывал об этом фильме, обязательно нужно посмотреть. Спасибо автору раздачи.
Pyff
Стаж: 11 лет 7 мес.
Сообщений: 144
Ratio: 5,805
Поблагодарили: 83
100%
Откуда: Питер
russia.gif
А мне, к сожалению, никто не рассказывал......
Спасибо, обязательно буду смотреть!
BSSR
Стаж: 10 лет
Сообщений: 81
Ratio: 7,23
100%
а я фильм в кинотеатре смотрел в советское время
посмотрю еще раз
спасибо
AKR.RKA
Стаж: 9 лет 11 мес.
Сообщений: 238
Ratio: 33,012
Поблагодарили: 926
100%
ussr.gif
Кстати у фильма существует ещё и вторая часть.
Нет ли возможности её тоже выложить в таком качестве?
dimon_soft
Стаж: 9 лет 6 мес.
Сообщений: 182
Ratio: 1,005
51.5%
ussr.gif
Про путина чтоли фильм сняли? 8)
Mr.Gudvin.
Стаж: 8 лет 3 мес.
Сообщений: 159
Ratio: 6,151
Поблагодарили: 18
100%
Откуда: region32.ru
russia.gif
Фильм тогда смотрелся на одном дыхание, надо ещё раз глянуть.спасибо))
Sea Katz
Стаж: 8 лет 9 мес.
Сообщений: 1502
Ratio: 1,687
Раздал: 445 GB
100%
Откуда: Морские просторы
pirates.png
dimon_soft писал(а): Перейти к сообщению
Про путина чтоли фильм сняли? 8)

Причём тут этот чинуша?
PLeonid
Стаж: 7 лет 10 мес.
Сообщений: 126
Ratio: 18,667
100%
Откуда: Киров
russia.gif
Два раза смотрел в 1968 и 1971, оба раза не отрываясь
lucius22
Стаж: 8 лет 11 мес.
Сообщений: 6
Ratio: 5,894
85.71%
russia.gif
+1
:респект:
lordtin
Стаж: 9 лет 11 мес.
Сообщений: 139
Ratio: 2,134
Поблагодарили: 25
100%
russia.gif
С удовольствием посмотрю
СПАСИБО!
MNV346211
Стаж: 8 лет 9 мес.
Сообщений: 52
Ratio: 6,333
100%
Этот фильм тоже смотрел, и хотя я не любитель боевиков - свё же советую молодым его посмотреть. Уж многому он учит!
DSD4
Стаж: 8 лет 10 мес.
Сообщений: 9
Ratio: 2,413
5.26%
Спасибо! Давно не смотрел, на этом фильме выросли многие подпольные ученики каратэ/дзюдо и т.д.
hyperborean
Стаж: 9 лет 5 мес.
Сообщений: 18
Ratio: 5,178
100%
Вот это да! Спасибо! У меня в худшем качестве был.
ian1952
Стаж: 9 лет 2 мес.
Сообщений: 3
Ratio: 20,684
0%
russia.gif
Перевод советский?
Показать сообщения:   
Начать новую тему   Ответить на тему    Торрент-трекер NNM-Club -> Зарубежное кино -> Азиатское кино (HD*Rip/LQ, DVDRip, SATRip, VHSRip) Часовой пояс: GMT + 3
Страницы:  1, 2  След.
Страница 1 из 2