Классический форум-трекер
canvas not supported
Нас вместе: 4 093 488

Полярный экспресс. / The Polar Express (2004) HDRip [1080p]


 
 
RSS
Начать новую тему   Ответить на тему    Торрент-трекер NNM-Club -> Мультфильмы -> Зарубежные Мультфильмы (HD, UHD, UHD-LQ)
Автор Сообщение
Алеся ®
Стаж: 9 лет 6 мес.
Сообщений: 154
Ratio: 111,762
Раздал: 212 GB
Поблагодарили: 5909
100%
ussr.gif
Полярный экспресс / The Polar Express (2004) HDRip [1080p]
Русское название: Полярный экспресс
Оригинальное название: The Polar Express
Год выпуска: 2004
Жанр: Детский, Приключения, Компьютерная анимация
Вид субтитров: отсутствуют
Дополнительные материалы и бонусы: отсутствуют

Перевод: Многоголосый закадровый, профессиональный
Язык: Русский, английский



Дата мировой премьеры: 21.10.2004
Дата выхода DVD/Blu-Ray релиза: 17.11.2009

Сборы в мире: 306 133 860$

Режиссер: Роберт Земекис/Robert Zemeckis
Персонажи: Том Хэнкс, Майкл Джитер, Нона Гей, Питер Сколари, Эдди Дизен, Лесли Хартер Земекис, Чарльз Флайшер, Джош Эли, Марк Мендонка, Роландас Хендрикс

Описание фильма:
По мотивам одноимённой книги Криса Ван Оллсбурга. Волшебная история о мальчике, сомневающемся в существовании Санта Клауса. Попав на таинственный поезд, направляющийся к Северному Полюсу, он оставляет позади все свои сомнения. И пока Рождественская ночь опускается на спящий мир, пассажиры скоростного поезда мчатся на Северный Полюс, встречая на своем пути приключения и опасности, подстерегающие их в темных лесах, зловещих горах и ледяной тундре. Этот путь раскроет зрителям силу искренней веры в циничном мире, красоту настоящей любви перед лицом презрения и способность верить в невозможное.
Полное имя: D:\Мои видеозаписи\Черновики\Poliarnyi.ekspres.2004.x264.HDDVD.1080p.mkv
Версия формата: Version 1
Размер файла: 6,87 Гбайт
Продолжительность: 1 ч. 39 м.
Общий поток: 9844 Кбит/сек
Дата кодирования: UTC 2008-03-31 00:08:12
Программа кодирования: mkvmerge v2.2.0 ('Turn It On Again') built on Mar 4 2008 12:58:26
Библиотека кодирования: libebml v0.7.7 + libmatroska v0.8.1

Видео
Идентификатор: 1
Формат: AVC
Формат/Информация: Advanced Video Codec
Профиль формата: High@L5.1
Параметр CABAC формата: Да
Параметр ReFrames формата: 8 кадров
Идентификатор кодека: V_MPEG4/ISO/AVC
Продолжительность: 1 ч. 39 м.
Битрейт: 8752 Кбит/сек
Ширина: 1920 пикселей
Высота: 800 пикселей
Соотношение сторон: 2,40:1
Частота кадров: 23,976 кадра/сек
Цветовое пространство: YUV
Субдискретизация насыщенности: 4:2:0
Битовая глубина: 8 бит
Тип развёртки: Прогрессивная
Бит/(Пиксели*Кадры): 0.238
Размер потока: 5,98 Гбайт (87%)
Заголовок: x264 @ 8752kbps
Библиотека кодирования: x264 core 54 svn-636M
Язык: English
Default: Да
Forced: Нет

Аудио #1
Идентификатор: 2
Формат: AC-3
Формат/Информация: Audio Coding 3
Расширение режима: CM (complete main)
Идентификатор кодека: A_AC3
Продолжительность: 1 ч. 39 м.
Вид битрейта: Постоянный
Битрейт: 640 Кбит/сек
Каналы: 6 каналов
Расположение каналов: Front: L C R, Side: L R, LFE
Частота: 48,0 КГц
Битовая глубина: 16 бит
Метод сжатия: С потерями
Размер потока: 457 Мбайт (7%)
Заголовок: AC3 Eng 640 kbps
Язык: English
Default: Нет
Forced: Нет

Аудио #2
Идентификатор: 3
Формат: AC-3
Формат/Информация: Audio Coding 3
Расширение режима: CM (complete main)
Идентификатор кодека: A_AC3
Продолжительность: 1 ч. 39 м.
Вид битрейта: Постоянный
Битрейт: 448 Кбит/сек
Каналы: 6 каналов
Расположение каналов: Front: L C R, Side: L R, LFE
Частота: 48,0 КГц
Битовая глубина: 16 бит
Метод сжатия: С потерями
Задержка видео: 32 мс.
Размер потока: 320 Мбайт (5%)
Заголовок: AC3 Rus 448 kbps
Язык: Russian
Default: Да
Forced: Нет
Продолжительность: 01:39:56
Качество видео: HDRip

Видеокодек: MPEG-4, AVC
Битрейт видео: ~8752 kpbs
Размер кадра: 1920х800 (2.40:1)
Аудио #1: AC-3, 48.0 KHz, 6 ch, 640 Kbps, CBR (Английский)
Аудио #2: AC-3, 48.0 KHz, 6 ch, 448 Kbps, CBR (Русский)

Скриншоты:


Время раздачи: С 10:00 до 20:00 (по возможности)
[NNM-Club.ru]_Polyarnyiy yekspress .mkv.torrent
 Торрент: Платиновая раздача  Зарегистрирован
 
Скачать


Примагнититься
 Зарегистрирован:   20 Дек 2011 10:37:42
 Размер:   6,87 GB  (
 Рейтинг:   4,8 (Голосов: 58)
 Поблагодарили:   214
 Проверка:   Оформление проверено модератором 20 Дек 2011 11:30:03
Как cкачать  ·  Как раздать  ·  Правильно оформить  ·  Поднять ратио!  
zaharovich
Стаж: 8 лет 8 мес.
Сообщений: 14
Ratio: 1,111
100%
russia.gif
Спасибо,что-то есть в нем такое,что смотрю уже не один разю
Алеся ®
Стаж: 9 лет 6 мес.
Сообщений: 154
Ratio: 111,762
Раздал: 212 GB
Поблагодарили: 5909
100%
ussr.gif
zaharovich
Пожалуйста, с наступающим Новым годом!
VIPER-COD3
Стаж: 8 лет 2 мес.
Сообщений: 8
Ratio: 12
100%
Обожаю этот мультфильм!!! Жаль, что так много весит и качается долго(( Но спасибку держи!
Алеся ®
Стаж: 9 лет 6 мес.
Сообщений: 154
Ratio: 111,762
Раздал: 212 GB
Поблагодарили: 5909
100%
ussr.gif
VIPER-COD3, спасибо за спасибку. Смотрите с удовольствием!
wixel
Стаж: 13 лет 1 мес.
Сообщений: 7
Ratio: 1,55
31.11%
russia.gif
Скачал, буду удалять- телевизор не тянет кодек.
mnigmma
Стаж: 10 лет 9 мес.
Сообщений: 3
Ratio: 0,304
0.93%
Спасибо ! но вроде матроскин но тв не поддерживает ,пытаюсь опять перекодировать.
Показать сообщения:   
Начать новую тему   Ответить на тему    Торрент-трекер NNM-Club -> Мультфильмы -> Зарубежные Мультфильмы (HD, UHD, UHD-LQ) Часовой пояс: GMT + 3
Страница 1 из 1