Классический форум-трекер
canvas not supported
Нас вместе: 4 093 999

Перелом / Fracture (2007) [720p] BDRip


 
 
RSS
Начать новую тему   Ответить на тему    Торрент-трекер NNM-Club -> Зарубежное кино -> Зарубежные Фильмы (HD, UHD-LQ)
Автор Сообщение
vsevolo ®
Стаж: 8 лет 2 мес.
Сообщений: 28
Ratio: 415,831
Раздал: 379 GB
Поблагодарили: 1448
Откуда: samara
russia.gif
Перелом / Fracture (2007) [720p] BDRip
Русское название: Перелом
Оригинальное название: Fracture
Год выпуска: 2007
Жанр: Триллер, Криминал, Детектив

Описание фильма:
Описание: Ассистент окружного прокурора оказывается втянутым в хитроумную игру в «кошки-мышки» человеком, который пытался убить свою жену, но избежал тюремного заключения благодаря нелепой бюрократической ошибке.

Режиссер: Грегори Хоблит
Актеры: Энтони Хопкинс, Райан Гослинг, Дэвид Стрэтэйрн, Розамунд Пайк, Эмбет Дэвидц, Билли Бурк, Клифф Кертис, Фиона Шоу, Боб Гантон, Джош Стэмберг

Продолжительность: 01:53:27
Перевод: Дублированный



Дата мировой премьеры: 11 апреля 2007
Дата российской премьеры: 5 июля 2007, «Каро-Премьер»
Дата выхода DVD релиза: 2 июня 2009, «Юниверсал Пикчерс Рус»,

Видеокодек: MPEG-4 AVC/H.264
Битрейт видео: ~4878 Кбит/сек
Размер кадра: 1280x544 at 23.976 fps
Качество видео: BDRip
Аудиокодек: AC3 6 каналов
Битрейт аудио: ~ 448 Кбит/сек 48 kHz, AC3, 3/2 (L,C,R,l,r) + LFE ch

Скриншоты:

Эталон психологического детектива

Совершенный, на мой вкус, психологический детектив!

Возможно, на балл мои впечатления повысил лицензионный диск с несколькими смысловыми удаленными сценами, позволившими мне оценить всю глубину сценария.

Получила несказанное удовольствие от хитросплетений сюжета и бесподобной игры исполнителей главных персонажей — Энтони Хопкинса в роли коварного преступника и Райана Гослинга в роли его уполномоченного Законом оппонента.

Сюжет выписан изумительно. С точки зрения жанра — эталон.

Еще раз убедилась в отменном вкусе Энтони Хопкинса, позволяющем ему безошибочно выбирать… хм… работу.

Настоятельно рекомендую любителям нестандартных детективов с акцентом на психологию противостоящих сторон.

10 из 10
Время раздачи: 17-00:08-30
Полное имя :Fracture.mkv
Формат : Matroska
Версия формата : Version 2
Размер файла : 4,22 Гбайт
Продолжительность : 1 ч. 53 м.
Общий поток : 5326 Кбит/сек
Название фильма : Fracture
Дата кодирования : UTC 2011-12-19 17:29:45
Программа кодирования : mkvmerge v4.8.0 ('I Got The...') сборка от May 24 2011 03:12:58
Библиотека кодирования : libebml v1.2.0 + libmatroska v1.1.0

Видео
Идентификатор : 1
Формат : AVC
Формат/Информация : Advanced Video Codec
Профиль формата : High@L4.1
Параметр CABAC формата : Да
Параметр ReFrames формата : 5 кадров
Параметр GOP формата : N=1
Режим смешивания : Header stripping
Идентификатор кодека : V_MPEG4/ISO/AVC
Продолжительность : 1 ч. 53 м.
Битрейт : 4878 Кбит/сек
Ширина : 1280 пикселей
Высота : 544 пикселя
Соотношение сторон : 2,35:1
Частота кадров : 23,976 кадра/сек
Цветовое пространство : YUV
Субдискретизация насыщенности : 4:2:0
Битовая глубина : 8 бит
Тип развёртки : Прогрессивная
Бит/(Пиксели*Кадры) : 0.292
Размер потока : 3,78 Гбайт (90%)
Библиотека кодирования : x264 core 67 r1165 6841c5e
Язык : English
Default : Да
Forced : Нет

Аудио
Идентификатор : 2
Формат : AC-3
Формат/Информация : Audio Coding 3
Расширение режима : CM (complete main)
Режим смешивания : Header stripping
Идентификатор кодека : A_AC3
Продолжительность : 1 ч. 53 м.
Вид битрейта : Постоянный
Битрейт : 448 Кбит/сек
Каналы : 6 каналов
Расположение каналов : Front: L C R, Side: L R, LFE
Частота : 48,0 КГц
Битовая глубина : 16 бит
Метод сжатия : С потерями
Задержка видео : 6 с. 500 мс.
Размер потока : 364 Мбайт (8%)
Язык : Russian
Default : Да
Forced : Нет
[NNM-Club.ru]_Fracture.mkv.torrent
 Торрент: Платиновая раздача  Зарегистрирован
 
Скачать


 Зарегистрирован:   19 Дек 2011 20:52:53
 Размер:   4,22 GB  (
 Рейтинг:   4,9 (Голосов: 42)
 Поблагодарили:   239
 Проверка:   Оформление проверено модератором 21 Дек 2011 22:48:49
Как cкачать  ·  Как раздать  ·  Правильно оформить  ·  Поднять ратио!  
vsevolo ®
Стаж: 8 лет 2 мес.
Сообщений: 28
Ratio: 415,831
Раздал: 379 GB
Поблагодарили: 1448
Откуда: samara
russia.gif
Энтони Хопкинс,это наше Все,лучше актера я не знаю......Жаль в возрасте уже....
valinaxx
Стаж: 8 лет 5 мес.
Сообщений: 15
Ratio: 10,745
100%
poland.gif
спасибо)
Мырмидон
Стаж: 9 лет 10 мес.
Сообщений: 14
Ratio: 40,758
100%
russia.gif
Спасибо за релиз =)
По фильму:
Показать сообщения:   
Начать новую тему   Ответить на тему    Торрент-трекер NNM-Club -> Зарубежное кино -> Зарубежные Фильмы (HD, UHD-LQ) Часовой пояс: GMT + 3
Страница 1 из 1