Классический форум-трекер
canvas not supported
Нас вместе: 4 077 966

Рождество с Белоснежкой / А Snow White Christmas (1980) DVDRip


 
 
RSS
Начать новую тему   Ответить на тему    Торрент-трекер NNM-Club -> Мультфильмы -> Зарубежные Мультфильмы для детей
Автор Сообщение
laforsh ®
Модератор Детских Игр
RG Всё лучшее - детям!
 
Стаж: 10 лет 5 мес.
Сообщений: 1470
Ratio: 1014,43
Поблагодарили: 33106
100%
ussr.gif
Рождество с Белоснежкой / А Snow White Christmas (1980) DVDRip
Русское название: Рождество с Белоснежкой
Оригинальное название: А Snow White Christmas
Год выпуска: 1980
Жанр: Комедия, Приключения, Детский
Перевод: Двуголосый закадровый, профессиональный
Язык: Русский

Релиз группа:


Дата мировой премьеры: 19.12.1980
Дата выхода DVD релиза: 16.12.2010
Режиссер: Кэй Райт

Описание фильма:
У Королевы Белоснежки и Короля-Чародея родилась дочь, которую в честь матери также назвали Белоснежкой. И вот однажды под Рождество принцесса Белоснежка решила сделать подарок всем детям - перестроить старый замок на Темной горе в Рождественский Дворец, где все смогут играть и веселиться. Она не знала, что в замке живет старая колдунья - мачеха ее матери, причинившая ей так много зла. Узнав о намерениях Белоснежки, колдунья вызывает страшную снежную бурю, чтобы заморозить все королевство и превратить его жителей в ледяные статуи. Но Белоснежке удается спастись. Она вынуждена отправиться в далекое путешествие в Страну Семи Великанов. Там Белоснежка знакомится с ее удивительными обитателями, которые помогают ей преодолеть множество испытаний и коварных ловушек злой колдуньи, чтобы спасти родное королевство и своих родителей.

Продолжительность: 00:46:05
Качество видео: DVDRip
Видеокодек: DivX 5
Битрейт видео: ~1926 Кбит/с
Размер кадра: 720x544
Аудиокодек: AC3 2.0
Битрейт аудио: 192 Кбит/с
Полное имя : Rojdestvo.s.Belosnejkoy.1980.DivX.DVDRip.avi
Формат : AVI
Формат/Информация : Audio Video Interleave
Размер файла : 700 Мбайт
Продолжительность : 46 м.
Общий поток : 2124 Кбит/сек
Программа кодирования : VirtualDubMod 1.5.4.1 (build 2178/release)
Библиотека кодирования : VirtualDubMod build 2178/release

Видео
Идентификатор : 0
Формат : MPEG-4 Visual
Параметр BVOP формата : 1
Параметр QPel формата : Нет
Параметр GMC формата : Без точки перехода
Параметр матрицы формата : Default (H.263)
Режим смешивания : Сжатый битовый поток
Идентификатор кодека : DX50
Идентификатор кодека/Подсказка : DivX 5
Продолжительность : 46 м.
Битрейт : 1926 Кбит/сек
Ширина : 720 пикс.
Высота : 544 пикс.
Соотношение сторон : 4:3
Частота кадров : 25,000 кадр/сек
Цветовое пространство : YUV
Подвыборка цветности : 4:2:0
Битовая глубина : 8 бит
Тип развёртки : Прогрессивная
Метод сжатия : С потерями
Бит/(Пиксели*Кадры) : 0.197
Размер потока : 635 Мбайт (91%)
Библиотека кодирования : DivX 6.8.0 (UTC 2007-12-04)

Аудио
Идентификатор : 1
Формат : AC-3
Формат/Информация : Audio Coding 3
Расширение режима : CM (complete main)
Идентификатор кодека : 2000
Продолжительность : 46 м.
Вид битрейта : Постоянный
Битрейт : 192 Кбит/сек
Каналы : 2 канала
Расположение каналов : Front: L R
Частота : 48,0 КГц
Битовая глубина : 16 бит
Метод сжатия : С потерями
Размер потока : 63,3 Мбайт (9%)
Выравнивание : Разделение по промежуткам
Продолжительность промежутка : 96 мс. (2,40 видеокадра)
Время предзагрузки промежутка : 96 ms
Язык : Russian
Скриншоты:




Время раздачи: Круглосуточно 24/7 до 15 скачавших.
[NNM-Club.ru]_Rojdestvo.s.Belosnejkoy.1980.DivX.DVDRip.avi.torrent
 Торрент: Золотая раздача  Зарегистрирован
 
Зарегистрируйтесь и скачайте торрент!
13,9 KB

Примагнититься
 Зарегистрирован:   20 Дек 2011 13:11:38
 Размер:   700 MB  (
 Рейтинг:   4,9 (Голосов: 21)
 Поблагодарили:   85
 Проверка:   Оформление проверено модератором 20 Дек 2011 13:26:02
Как cкачать  ·  Как раздать  ·  Правильно оформить  ·  Поднять ратио!  
Показать сообщения:   
Начать новую тему   Ответить на тему    Торрент-трекер NNM-Club -> Мультфильмы -> Зарубежные Мультфильмы для детей Часовой пояс: GMT + 3
Страница 1 из 1