Классический форум-трекер
canvas not supported
Нас вместе: 4 079 478

Скруфи и Рождество / Scruff: a Christmas Tale (2005) DVDRip


 
 
RSS
Начать новую тему   Ответить на тему    Торрент-трекер NNM-Club -> Мультфильмы -> Зарубежные Мультфильмы для детей
Автор Сообщение
эксклюзив ®
Стаж: 8 лет 7 мес.
Сообщений: 1169
Ratio: 159,795
Поблагодарили: 75107
100%
Скруфи и Рождество / Scruff: a Christmas Tale (2005) DVDRip
Русское название: Скруфи и Рождество
Оригинальное название: Scruff: a Christmas Tale
Год выпуска: 2005
Жанр: Детский



Режиссер: Энтони Д'Окон

Перевод: Профессиональный многоголосый

Описание фильма:
Красивая рождественская история, которая поведает маленьким зрителям о зимних приключениях маленького озорного щенка по кличке Скруфи… Канун Рождества. Жители фермы в предрождественских хлопотах. Елка сияет великолепным праздничным нарядом, падает пушистый снег, а в центре событий — проказник Скруфи, который хочет отпраздновать Рождество весьма интересным способом… похитив у куропаток несколько яиц, он желает насладиться ими в одиночку.

Продолжительность: 01:06:29
Качество видео: DVDRip

Видеокодек: DivX 5
Битрейт видео: ~1316 kb/s
Размер кадра: 720x544
Аудиокодек: MP3, 2 ch
Битрейт аудио: 128 kb/s
Общее
Полное имя : G:\Мультфильмы\Скруфи и Рождество.2005.DivX.DVDRip.avi
Формат : AVI
Формат/Информация : Audio Video Interleave
Размер файла : 690 Мбайт
Продолжительность : 1 ч. 6 м.
Общий поток : 1451 Кбит/сек
Название фильма : Scruff - a Christmas Tale (2005)
Программа кодирования : VirtualDubMod 1.5.4.1 (build 2178/release)VirtualDubMod build 2178/release

Видео
Идентификатор : 0
Формат : MPEG-4 Visual
Параметр BVOP формата : 1
Параметр QPel формата : Нет
Параметр GMC формата : Без точки перехода
Параметр матрицы формата : Default (H.263)
Режим смешивания : Сжатый битовый поток
Идентификатор кодека : DX50
Идентификатор кодека/Подсказка : DivX 5
Продолжительность : 1 ч. 6 м.
Битрейт : 1316 Кбит/сек
Ширина : 720 пикс.
Высота : 544 пикс.
Соотношение сторон : 4:3
Частота кадров : 25,000 кадр/сек
Цветовое пространство : YUV
Подвыборка цветности : 4:2:0
Битовая глубина : 8 бит
Тип развёртки : Прогрессивная
Метод сжатия : С потерями
Бит/(Пиксели*Кадры) : 0.134
Размер потока : 626 Мбайт (91%)
Библиотека кодирования : DivX 6.7.0 (UTC 2007-09-20)

Аудио
Идентификатор : 1
Формат : MPEG Audio
Версия формата : Version 1
Профиль формата : Layer 3
Режим : Joint stereo
Расширение режима : MS Stereo
Идентификатор кодека : 55
Идентификатор кодека/Подсказка : MP3
Продолжительность : 1 ч. 6 м.
Вид битрейта : Постоянный
Битрейт : 128 Кбит/сек
Канал(ы) : 2 канала(ов)
Частота : 48,0 КГц
Метод сжатия : С потерями
Размер потока : 60,9 Мбайт (9%)
Выравнивание : Соединение по промежуткам
Продолжительность промежутка : 80 мс. (2,00 видеокадров)
Время предзагрузки промежутка : 504 ms
Библиотека кодирования : LAME3.97
Настройки программы : -m j -V 4 -q 2 -lowpass 17 -b 128
Язык : 5 / @5 / Russian
Скриншоты:


[NNM-Club.ru]_Skrufi i Rozhdestvo.2005.DivX.DVDRip.avi.torrent
 Торрент: Золотая раздача  Зарегистрирован
 
Зарегистрируйтесь и скачайте торрент!
13,9 KB

Примагнититься
 Зарегистрирован:   24 Дек 2011 15:21:30
 Размер:   690 MB  (
 Рейтинг:   4,5 (Голосов: 15)
 Поблагодарили:   44
 Проверка:   Оформление проверено модератором 24 Дек 2011 15:27:30
Как cкачать  ·  Как раздать  ·  Правильно оформить  ·  Поднять ратио!  
Показать сообщения:   
Начать новую тему   Ответить на тему    Торрент-трекер NNM-Club -> Мультфильмы -> Зарубежные Мультфильмы для детей Часовой пояс: GMT + 3
Страница 1 из 1