Классический форум-трекер
canvas not supported
Нас вместе: 4 076 766

С Новым Годом! сборник мультфильмов (1950-1978) DVDRip (Когда зажигаются елки, Дед мороз и лето, Снегурка, Снеговик почтовик, Снежные дорожки, Дед мороз и серый волк)


Страницы:   Пред.  1, 2 
 
RSS
Начать новую тему   Ответить на тему    Торрент-трекер NNM-Club -> Мультфильмы -> Отечественные Мультфильмы для детей
Автор Сообщение
denver7979 ®
Зам. Куратора Детского.
Модератор Видео.
RG Всё лучшее - детям!
 
Стаж: 8 лет 8 мес.
Сообщений: 7566
Ratio: 490,976
Раздал: 33,88 TB
Поблагодарили: 308515
100%
Откуда: Земля
ussr.gif
С Новым Годом! сборник мультфильмов (1950-1978) DVDRip
Русское название: С Новым Годом! сборник мультфильмов
Год выпуска: 1950-1978
Жанр: Детский, Рисованная анимация

Режиссер: Караваев Валентин, Витольд Бордзиловский
Персонажи: Борис Владимиров, Мария Виноградова, Георгий Вицин, А. Соловьев, Анатолий Папанов, Ольга Громова, Маргарита Корабельникова

Описание фильма:
Замечательные Отечественные новогодние мультфильмы собраны в сборнике:
1. Когда зажигаются елки
2. Дед мороз и лето
3. Снегурка
4. Снеговик почтовик
5. Снежные дорожки
6. Дед мороз и серый волк

Продолжительность: 01:32:00
Качество видео: DVDRip

Видео: MPEG4, XviD, 640x480 (4:3), 688x512 (4:3), 696x564 (5:4), 25.000 fps, ~2 010 Kbps (0.262 bit/pixel)
Аудио: AC-3, MP3, 48.0 KHz, 2 ch, 128 Kbps, 224 Kbps, 192 Kbps, CBR
Когда зажигаются елки (1950)
гoд 1950
страна СССР
рeжиссер Мстислав Пащенко
сценарий Сергей Михалков, Владимир Сутеев, Михаил Вольпин
оператор Михаил Друян
композитор Карэн Хачатурян
художник Евгений Мигунов, Владимир Дегтярев
монтаж Лидия Кякшт



Прoдолжительность: 00:19:56

Видео: MPEG4, XviD, 688x512 (4:3), 25.000 fps, 1 533 Kbps (0.174 bit/pixel)
Аудио: AC-3, 48.0 KHz, 2 ch, 192 Kbps, CBR
Видео
Идентификатор : 0
Формат : MPEG-4 Visual
Профиль формата : Advanced Simple@L5
Параметр BVOP формата : 1
Параметр QPel формата : Нет
Параметр GMC формата : Без точки перехода
Параметр матрицы формата : Default (H.263)
Режим смешивания : Сжатый битовый поток
Идентификатор кодека : XVID
Идентификатор кодека/Подсказка : XviD
Продолжительность : 19 м.
Битрейт : 1533 Кбит/сек
Ширина : 688 пикселей
Высота : 512 пикселей
Соотношение сторон : 4:3
Частота кадров : 25,000 кадров/сек
Цветовое пространство : YUV
Субдискретизация насыщенности : 4:2:0
Битовая глубина : 8 бит
Тип развёртки : Прогрессивная
Метод сжатия : С потерями
Бит/(Пиксели*Кадры) : 0.174
Размер потока : 219 Мбайт (88%)
Библиотека кодирования : XviD 1.1.0 (UTC 2005-11-22)

Аудио
Идентификатор : 1
Формат : AC-3
Формат/Информация : Audio Coding 3
Расширение режима : CM (complete main)
Идентификатор кодека : 2000
Продолжительность : 19 м.
Вид битрейта : Постоянный
Битрейт : 192 Кбит/сек
Каналы : 2 канала
Расположение каналов : Front: L R
Частота : 48,0 КГц
Битовая глубина : 16 бит
Метод сжатия : С потерями
Размер потока : 27,4 Мбайт (11%)
Выравнивание : Разделение по промежуткам
Продолжительность промежутка : 40 мс. (1,00 видеокадр)
Время предзагрузки промежутка : 500 мс.
Скриншоты:

Дед Мороз и лето (1969)
гoд 1969
страна СССР
рeжиссер Валентин Караваев
сценарий Юрий Энтин, Василий Ливанов
директор фильма Любовь Бутырина
оператор Борис Котов
композитор Евгений Крылатов
художник Мария Рудаченко



Продoлжительность: 00:18:38

Видео: MPEG4, XviD, 640x480 (4:3), 25.000 fps, 2 010 Kbps (0.262 bit/pixel)
Аудио: MP3, 48.0 KHz, 2 ch, 128 Kbps, CBR
Видео
Идентификатор : 0
Формат : MPEG-4 Visual
Профиль формата : Advanced Simple@L5
Параметр BVOP формата : 2
Параметр QPel формата : Нет
Параметр GMC формата : Без точки перехода
Параметр матрицы формата : Default (MPEG)
Идентификатор кодека : XVID
Идентификатор кодека/Подсказка : XviD
Продолжительность : 18 м.
Битрейт : 2010 Кбит/сек
Ширина : 640 пикселей
Высота : 480 пикселей
Соотношение сторон : 4:3
Частота кадров : 25,000 кадров/сек
Цветовое пространство : YUV
Субдискретизация насыщенности : 4:2:0
Битовая глубина : 8 бит
Тип развёртки : Прогрессивная
Метод сжатия : С потерями
Бит/(Пиксели*Кадры) : 0.262
Размер потока : 268 Мбайт (94%)
Библиотека кодирования : XviD 1.0.3 (UTC 2004-12-20)

Аудио
Идентификатор : 1
Формат : MPEG Audio
Версия формата : Version 1
Профиль формата : Layer 3
Идентификатор кодека : 55
Идентификатор кодека/Подсказка : MP3
Продолжительность : 18 м.
Вид битрейта : Постоянный
Битрейт : 128 Кбит/сек
Каналы : 2 канала
Частота : 48,0 КГц
Метод сжатия : С потерями
Размер потока : 17,1 Мбайт (6%)
Выравнивание : Соединение по промежуткам
Продолжительность промежутка : 40 мс. (1,00 видеокадр)
Время предзагрузки промежутка : 504 мс.
Библиотека кодирования : LAME3.96.1
Скриншоты:

Снегурка (1969)
гoд 1969
страна СССР
рeжиссер Владимир Дегтярев, Николай Эрдман
директор фильма Федор Иванов
оператор Михаил Друян
композитор В. Агафонников



Продoлжительность: 00:09:43

Видео: MPEG4, XviD, 688x512 (4:3), 25.000 fps, 1 923 Kbps (0.218 bit/pixel)
Аудио: AC-3, 48.0 KHz, 2 ch, 192 Kbps, CBR
Видео
Идентификатор : 0
Формат : MPEG-4 Visual
Профиль формата : Advanced Simple@L5
Параметр BVOP формата : 1
Параметр QPel формата : Нет
Параметр GMC формата : Без точки перехода
Параметр матрицы формата : Default (H.263)
Режим смешивания : Сжатый битовый поток
Идентификатор кодека : XVID
Идентификатор кодека/Подсказка : XviD
Продолжительность : 9 м. 43 с.
Битрейт : 1923 Кбит/сек
Ширина : 688 пикселей
Высота : 512 пикселей
Соотношение сторон : 4:3
Частота кадров : 25,000 кадров/сек
Цветовое пространство : YUV
Субдискретизация насыщенности : 4:2:0
Битовая глубина : 8 бит
Тип развёртки : Прогрессивная
Метод сжатия : С потерями
Бит/(Пиксели*Кадры) : 0.218
Размер потока : 134 Мбайт (91%)
Библиотека кодирования : XviD 1.1.0 (UTC 2005-11-22)

Аудио
Идентификатор : 1
Формат : AC-3
Формат/Информация : Audio Coding 3
Расширение режима : CM (complete main)
Время предзагрузки промежутка : 500 мс.
Скриншоты:

Снеговик - почтовик (1955)
гoд 1955
страна СССР
рeжиссер Леонид Амальрик
сценарий Владимир Сутеев
оператор Михаил Друян
композитор Никита Богословский



Продoлжительность: 00:18:31

Видео: MPEG4, XviD, 688x512 (4:3), 25.000 fps, 1 671 Kbps (0.190 bit/pixel)
Аудио: AC-3, 48.0 KHz, 2 ch, 192 Kbps, CBR
Видео
Идентификатор : 0
Формат : MPEG-4 Visual
Профиль формата : Advanced Simple@L5
Параметр BVOP формата : 1
Параметр QPel формата : Нет
Параметр GMC формата : Без точки перехода
Параметр матрицы формата : Default (H.263)
Режим смешивания : Сжатый битовый поток
Идентификатор кодека : XVID
Идентификатор кодека/Подсказка : XviD
Продолжительность : 18 м.
Битрейт : 1671 Кбит/сек
Ширина : 688 пикселей
Высота : 512 пикселей
Соотношение сторон : 4:3
Частота кадров : 25,000 кадров/сек
Цветовое пространство : YUV
Субдискретизация насыщенности : 4:2:0
Битовая глубина : 8 бит
Тип развёртки : Прогрессивная
Метод сжатия : С потерями
Бит/(Пиксели*Кадры) : 0.190
Размер потока : 221 Мбайт (89%)
Библиотека кодирования : XviD 1.1.0 (UTC 2005-11-22)

Аудио
Идентификатор : 1
Формат : AC-3
Формат/Информация : Audio Coding 3
Расширение режима : CM (complete main)
Идентификатор кодека : 2000
Продолжительность : 18 м.
Вид битрейта : Постоянный
Битрейт : 192 Кбит/сек
Каналы : 2 канала
Расположение каналов : Front: L R
Частота : 48,0 КГц
Битовая глубина : 16 бит
Метод сжатия : С потерями
Размер потока : 25,4 Мбайт (10%)
Выравнивание : Разделение по промежуткам
Продолжительность промежутка : 40 мс. (1,00 видеокадр)
Время предзагрузки промежутка : 500 мс.
Скриншоты:

Снежные дорожки (1963)
гoд 1963
страна СССР
рeжиссер Борис Дежкин
сценарий Сакко Рунге, Борис Дежкин, Александр Кумма
оператор Елена Петрова
композитор Александр Варламов
художник Светозар Русаков, Борис Дежкин



Продoлжительность: 00:10:01

Видео: MPEG4, XviD, 688x512 (4:3), 25.000 fps, 1 433 Kbps (0.163 bit/pixel)
Аудио: AC-3, 48.0 KHz, 2 ch, 192 Kbps, CBR
Видео
Идентификатор : 0
Формат : MPEG-4 Visual
Профиль формата : Advanced Simple@L5
Параметр BVOP формата : 1
Параметр QPel формата : Нет
Параметр GMC формата : Без точки перехода
Параметр матрицы формата : Default (H.263)
Режим смешивания : Сжатый битовый поток
Идентификатор кодека : XVID
Идентификатор кодека/Подсказка : XviD
Продолжительность : 10 м.
Битрейт : 1433 Кбит/сек
Ширина : 688 пикселей
Высота : 512 пикселей
Соотношение сторон : 4:3
Частота кадров : 25,000 кадров/сек
Цветовое пространство : YUV
Субдискретизация насыщенности : 4:2:0
Битовая глубина : 8 бит
Тип развёртки : Прогрессивная
Метод сжатия : С потерями
Бит/(Пиксели*Кадры) : 0.163
Размер потока : 103 Мбайт (88%)
Библиотека кодирования : XviD 1.1.0 (UTC 2005-11-22)

Аудио
Идентификатор : 1
Формат : AC-3
Формат/Информация : Audio Coding 3
Расширение режима : CM (complete main)
Идентификатор кодека : 2000
Продолжительность : 10 м.
Вид битрейта : Постоянный
Битрейт : 192 Кбит/сек
Каналы : 2 канала
Расположение каналов : Front: L R
Частота : 48,0 КГц
Битовая глубина : 16 бит
Метод сжатия : С потерями
Размер потока : 13,7 Мбайт (12%)
Выравнивание : Разделение по промежуткам
Продолжительность промежутка : 40 мс. (1,00 видеокадр)
Время предзагрузки промежутка : 500 мс.
Скриншоты:

Дед Мороз и Серый волк (1978)
гoд 1978
страна СССР
рeжиссер Витольд Бордзиловский
сценарий Владимир Сутеев
директор фильма Любовь Бутырина
оператор Борис Котов
композитор Михаил Меерович
художник Владимир Соболев
монтаж Елена Тертычная



Продoлжительность: 00:16:45

Видео: MPEG4, XviD, 696x564 (5:4), 25.000 fps, 1 577 Kbps (0.161 bit/pixel)
Аудио: AC-3, 48.0 KHz, 2 ch, 224 Kbps, CBR
Видео
Идентификатор : 0
Формат : MPEG-4 Visual
Профиль формата : Advanced Simple@L5
Параметр BVOP формата : 2
Параметр QPel формата : Нет
Параметр GMC формата : Без точки перехода
Параметр матрицы формата : Default (MPEG)
Режим смешивания : Сжатый битовый поток
Идентификатор кодека : XVID
Идентификатор кодека/Подсказка : XviD
Продолжительность : 16 м.
Битрейт : 1577 Кбит/сек
Ширина : 696 пикселей
Высота : 564 пикселя
Соотношение сторон : 5:4
Частота кадров : 25,000 кадров/сек
Цветовое пространство : YUV
Субдискретизация насыщенности : 4:2:0
Битовая глубина : 8 бит
Тип развёртки : Прогрессивная
Метод сжатия : С потерями
Бит/(Пиксели*Кадры) : 0.161
Размер потока : 189 Мбайт (87%)
Библиотека кодирования : XviD 1.1.0 (UTC 2005-11-22)

Аудио
Идентификатор : 1
Формат : AC-3
Формат/Информация : Audio Coding 3
Расширение режима : CM (complete main)
Идентификатор кодека : 2000
Продолжительность : 16 м.
Вид битрейта : Постоянный
Битрейт : 224 Кбит/сек
Каналы : 2 канала
Расположение каналов : Front: L R
Частота : 48,0 КГц
Битовая глубина : 16 бит
Метод сжатия : С потерями
Размер потока : 26,8 Мбайт (12%)
Выравнивание : Соединение по промежуткам
Продолжительность промежутка : 40 мс. (1,00 видеокадр)
Время предзагрузки промежутка : 512 мс.
Скриншоты:
Скриншоты:




Время раздачи: с 11:00 до 01:00
[NNM-Club.ru]_S.novim.godom.XviD.DVDRip.torrent
 Торрент: Платиновая раздача  Зарегистрирован
 
Скачать


Примагнититься
 Зарегистрирован:   24 Дек 2011 17:24:16
 Размер:   1,23 GB  (
 Рейтинг:   4,9 (Голосов: 356)
 Поблагодарили:   1367
 Проверка:   Оформление проверено модератором 24 Дек 2011 18:07:40
Как cкачать  ·  Как раздать  ·  Правильно оформить  ·  Поднять ратио!  
spc_leha
Стаж: 8 лет 10 мес.
Сообщений: 11
Ratio: 2,165
100%
Спасибо за отличную подборку!
Andryuha
Стаж: 12 лет 3 мес.
Сообщений: 83
Ratio: 41,061
Поблагодарили: 197
100%
Откуда: Россия
russia.gif
Спасибо !
Всех с наступающим !

_________________
Беру в долг, уничтожаю продукты, всех ненавижу.
Показать сообщения:   
Начать новую тему   Ответить на тему    Торрент-трекер NNM-Club -> Мультфильмы -> Отечественные Мультфильмы для детей Часовой пояс: GMT + 3
Страницы:   Пред.  1, 2
Страница 2 из 2