Классический форум-трекер
canvas not supported
Нас вместе: 4 078 888

Земляничка. Приключения в ягодной стране / Strawberry Shortcake: Spring for Strawberry Shortcake (2 серии из 2) (2007) DVDRip


 
 
RSS
Начать новую тему   Ответить на тему    Торрент-трекер NNM-Club -> Мультфильмы -> Зарубежные Мультфильмы для детей
Автор Сообщение
эксклюзив ®
Стаж: 8 лет 6 мес.
Сообщений: 1169
Ratio: 159,795
Поблагодарили: 75087
100%
Земляничка. Приключения в ягодной стране / Strawberry Shortcake: Spring for Strawberry Shortcake (2 серии из 2) (2007) DVDRip
Русское название: Земляничка. Приключения в ягодной стране
Оригинальное название: Strawberry Shortcake: Spring for Strawberry Shortcake
Год выпуска: 2007
Жанр: Детский



Режиссер: Энди Хэйвард
Перевод: Профессиональный (двухголосый)

Описание фильма:
Земляничка организовывает для своей сестренки Яблочка вечеринку в честь Дня Рождения. Чтобы достать все необходимое, она отправляется в дорогу, полную приключений. Ей удается не только найти сок, печенье, торт и шляпы для праздника, но и завести новых друзей, Апельсинку, Бисквит, Изюминку, Медок и Гекльбери.

Первый день весны в Ягодной Стране, но, несмотря на это, все еще дует холодный ветер, кругом одни сосульки, точно весна решила не приходить в этом году. Поэтому Земляничка и ее подруги, Апельсинка и Изюминка, отправляются на поиски весны.

Оказалось, что Весна — маленькая девочка, и ей не хочется работать. Земляничка убеждает ее, что без весны всё погибнет, и что работать иногда очень весело.

Продолжительность: 2 x ~ 00:45:07
Качество видео: DVDRip

Видеокодек: Xvid
Битрейт видео: ~1411 kb/s
Размер кадра: 640x480
Аудиокодек: MP3, 2 ch
Битрейт аудио: 128 kb/s
01. Приключения в Ягодной Стране
02. Как вернуть весну
Общее
Полное имя : G:\Мультфильмы\Земляничка Приключения в ягодной стране.2003.P.DVDRip\01. Земляничка Приключения в ягодной стране.avi
Формат : AVI
Формат/Информация : Audio Video Interleave
Размер файла : 500 Мбайт
Продолжительность : 45 м.
Общий поток : 1549 Кбит/сек
Программа кодирования : VirtualDubMod 1.5.10.2 (build 2540/release)
Библиотека кодирования : VirtualDubMod build 2540/release

Видео
Идентификатор : 0
Формат : MPEG-4 Visual
Профиль формата : Advanced Simple@L5
Параметр BVOP формата : 2
Параметр QPel формата : Нет
Параметр GMC формата : Без точки перехода
Параметр матрицы формата : Default (MPEG)
Режим смешивания : Сжатый битовый поток
Идентификатор кодека : XVID
Идентификатор кодека/Подсказка : XviD
Продолжительность : 45 м.
Битрейт : 1411 Кбит/сек
Ширина : 640 пикс.
Высота : 480 пикс.
Соотношение сторон : 4:3
Частота кадров : 25,000 кадр/сек
Цветовое пространство : YUV
Подвыборка цветности : 4:2:0
Битовая глубина : 8 бит
Тип развёртки : Прогрессивная
Метод сжатия : С потерями
Бит/(Пиксели*Кадры) : 0.184
Размер потока : 455 Мбайт (91%)
Библиотека кодирования : XviD 1.2.1 (UTC 2008-12-04)

Аудио
Идентификатор : 1
Формат : MPEG Audio
Версия формата : Version 1
Профиль формата : Layer 3
Режим : Joint stereo
Расширение режима : MS Stereo
Идентификатор кодека : 55
Идентификатор кодека/Подсказка : MP3
Продолжительность : 45 м.
Вид битрейта : Постоянный
Битрейт : 128 Кбит/сек
Канал(ы) : 2 канала(ов)
Частота : 48,0 КГц
Метод сжатия : С потерями
Размер потока : 41,3 Мбайт (8%)
Выравнивание : Соединение по промежуткам
Продолжительность промежутка : 40 мс. (1,00 видеокадр)
Время предзагрузки промежутка : 504 ms
Скриншоты:


[NNM-Club.ru]_Zemlyanichka. Priklyucheniya v yagodnoy strane.2007.P.DVDRip.torrent
 Торрент: Платиновая раздача  Зарегистрирован
 
Скачать


Примагнититься
 Зарегистрирован:   28 Дек 2011 09:01:55
 Размер:   1001 MB  (
 Рейтинг:   4,5 (Голосов: 16)
 Поблагодарили:   80
 Проверка:   Оформление проверено модератором 28 Дек 2011 09:34:29
Как cкачать  ·  Как раздать  ·  Правильно оформить  ·  Поднять ратио!  
Загрузка...
Показать сообщения:   
Начать новую тему   Ответить на тему    Торрент-трекер NNM-Club -> Мультфильмы -> Зарубежные Мультфильмы для детей Часовой пояс: GMT + 3
Страница 1 из 1