Классический форум-трекер
canvas not supported
Нас вместе: 4 094 547

Хранители (Театральная версия)/ Watchmen (Theatrical Cut) (2009) BDRip


 
 
RSS
Начать новую тему   Ответить на тему    Торрент-трекер NNM-Club -> Зарубежное кино -> Зарубежные Фильмы (HD*Rip/LQ, DVDRip, SATRip, VHSRip)
Автор Сообщение
мин-воды ®
 
Стаж: 9 лет
Сообщений: 2166
Ratio: 21,169
Поблагодарили: 56570
100%
Откуда: Минеральные Воды
neth_antilles.gif
Хранители (Театральная версия)/ Watchmen (Theatrical Cut) (2009) BDRip
«Правосудие настигнет каждого из нас. Не важно за что.»

Русское название: Хранители
Оригинальное название: Watchmen
Тип издания: Театральная версия / Theatrical Cut
Год выпуска: 2009
Страна: США
Жанр: Боевик, Детектив, Криминал, Триллер, Фантастика, Фэнтези
Описание фильма:
Действия фильма разворачиваются в параллельном мире. В мире, где супергерои стали неотъемлемой частью общества. Они несколько столетий стояли на страже покоя обычных людей, но всегда были те, кого этот порядок дел не устраивал. И вот один из супергероев узнает о том, что зреет страшный заговор, целью которого является дискредитировать всех супергероев, и тех, кто жил раньше, и тех, кто живет сейчас. Супергероям придется объединиться, чтобы противостоять новой, невиданной прежде угрозе. Супергерои встают за защиты собственной репутации, которая теперь находится под угрозой.

Режиссер: Зак Снайдер
Актеры: Джеффри Дин Морган, Билли Крудап, Мэттью Гуд, Карла Гуджино, Малин Акерман, Лаура Меннелл, Патрик Уилсон, Джеки Эрл Хэйли, Мэтт Фрюэр, Стивен МакХэтти

Продолжительность: 02:42:00
Перевод: Дублированный

Релиз группа: hellywood

СЭМПЛ

Дата мировой премьеры: 23 февраля 2009
Дата российской премьеры: 5 марта 2009, «Централ Партнершип»
Дата релиз на Blu-Ray: 1 сентября 2009, «Юниверсал Пикчерс Рус»
Дата релиз на DVD: 1 сентября 2009, «Юниверсал Пикчерс Рус»

Видеокодек: Xvid
Битрейт видео: ~2 106 Kbps
Размер кадра: 720х304
Качество видео: BDRip
Аудио:: 48 kHz, AC-3 Dolby Digital, 3/2 (L,C,R,l,r) + LFE ch, ~448.00 kbps avg (Русский)
General
Complete name : G:\................\Хранители (Театральная версия) Watchmen (Theatrical Cut) (2009) BDRip.avi
Format : AVI
Format/Info : Audio Video Interleave
Format profile : OpenDML
File size : 2.90 GiB
Duration : 2h 42mn
Overall bit rate : 2 565 Kbps
Movie name : Хранители (Тетральная версия) / Watchmen (Theatrical Cut) (2009) BDRip
Director : HITMAN
Writing application : VirtualDubMod 1.5.10.2 (build 2542/release)
Comment : 02.09.2009

Video
ID : 0
Format : MPEG-4 Visual
Format profile : Advanced Simple@L5
Format settings, BVOP : 1
Format settings, QPel : No
Format settings, GMC : No warppoints
Format settings, Matrix : Default (MPEG)
Codec ID : XVID
Codec ID/Hint : XviD
Duration : 2h 42mn
Bit rate : 2 106 Kbps
Width : 720 pixels
Height : 304 pixels
Display aspect ratio : 2.35:1
Frame rate : 23.976 fps
Color space : YUV
Chroma subsampling : 4:2:0
Bit depth : 8 bits
Scan type : Progressive
Compression mode : Lossy
Bits/(Pixel*Frame) : 0.401
Stream size : 2.38 GiB (82%)
Writing library : XviD 1.2.1 (UTC 2008-12-04)

Audio
ID : 1
Format : AC-3
Format/Info : Audio Coding 3
Mode extension : CM (complete main)
Codec ID : 2000
Duration : 2h 42mn
Bit rate mode : Constant
Bit rate : 448 Kbps
Channel(s) : 6 channels
Channel positions : Front: L C R, Side: L R, LFE
Sampling rate : 48.0 KHz
Bit depth : 16 bits
Compression mode : Lossy
Stream size : 519 MiB (17%)
Alignment : Split accross interleaves
Interleave, duration : 42 ms (1.00 video frame)
Interleave, preload duration : 500 ms
Скриншоты:






Время раздачи: с 09:00 до 22:00
[NNM-Club.ru]_Hraniteli (Teatral'naya versiya) Watchmen (Theatrical Cut) (2009) BDRip.avi.torrent
 Торрент: Платиновая раздача  Зарегистрирован
 
Скачать


Примагнититься
 Зарегистрирован:   01 Янв 2012 15:56:35
 Размер:   2,9 GB  (
 Рейтинг:   4,7 (Голосов: 97)
 Поблагодарили:   254
 Проверка:   Оформление проверено модератором 03 Янв 2012 11:23:17
Как cкачать  ·  Как раздать  ·  Правильно оформить  ·  Поднять ратио!  
sasha-taipan
Стаж: 9 лет
Сообщений: 115
Ratio: 2,796
Раздал: 7,465 TB
100%
singapore.gif
сказочка!-но эффектно!

_________________
'Что человек курит?' Как правило возникает не когда ты слышишь, КАК он дышит, а когда видишь, ЧТО он пишет.
CTaJlEBap
Стаж: 10 лет 4 мес.
Сообщений: 34
Ratio: 0,966
100%
russia.gif
давно интересует вопрос театральная версия-это как?что за версия такая?
мин-воды ®
 
Стаж: 9 лет
Сообщений: 2166
Ratio: 21,169
Поблагодарили: 56570
100%
Откуда: Минеральные Воды
neth_antilles.gif
CTaJlEBap писал(а):
давно интересует вопрос театральная версия-это как?что за версия такая?

та что в кинозале на широких просторах, режиссёрская это то что не вошло в театральную, иначе зрители на 25 минуте бы зевали кашляли и чихали, расширенная, максимальная и т. д. - это всё синонимы режиссёрской, как то так.
ka4ek92
Стаж: 9 лет 4 мес.
Сообщений: 784
Ratio: 2,742
100%
уж больно низкие оценки у такого охренительного фильма
zzzRevanzzz
Стаж: 8 лет 11 мес.
Сообщений: 351
Ratio: 2,591
Поблагодарили: 53
100%
russia.gif
Так много о нём слышал - скачал, запустил...немного посмотрел...и...не понял, почему так много шума вокруг сего творения. Фильм показался нудным, хаотичным и попросту неинтересным, досматривать это не было никаких сил ----> DELETE (на правах ИМХО естественно).

_________________
мин-воды ®
 
Стаж: 9 лет
Сообщений: 2166
Ratio: 21,169
Поблагодарили: 56570
100%
Откуда: Минеральные Воды
neth_antilles.gif
прямо так заклевали как будто я его сам сотворил, фильм, аля продюсер!
CTaJlEBap
Стаж: 10 лет 4 мес.
Сообщений: 34
Ratio: 0,966
100%
russia.gif
Спасибо за ответ!! :респект:
AprioriEGO
Стаж: 9 лет 3 мес.
Сообщений: 23
Ratio: 5,231
3.63%
russia.gif
После 10 мин просмотра фильма, моя реакция была: "Что это за бред!?", но после просмотра фильма, я скажу, что он действительно классный и заслуживает тех высоких оценок, что ему дают, фильм неординарный и с глубоким смыслом!!!
Всем советую посмотреть, кто еще не оценил данного шедевра!
vvt777
Стаж: 9 лет 9 мес.
Сообщений: 385
Ratio: 1,455
100%
russia.gif
согласен, фильм не так прост как кажется, философские мысли в обложке комикса.+ классная режиссура
Ranger87
Стаж: 8 лет 4 мес.
Сообщений: 14
Ratio: 26,499
1.92%
Что за чепуха со звуком? Я пол фильма вставал и менял громкость: То орет так, что соседи по батарее стучат, то вообще [ничего] не слышно. Вот при всем желании насладиться фильмом не получилось. Мои разочарования и сожаления о том, что я скачал сегодня эту раздачу неописуемы.
Показать сообщения:   
Начать новую тему   Ответить на тему    Торрент-трекер NNM-Club -> Зарубежное кино -> Зарубежные Фильмы (HD*Rip/LQ, DVDRip, SATRip, VHSRip) Часовой пояс: GMT + 3
Страница 1 из 1