Классический форум-трекер
canvas not supported
Нас вместе: 4 094 690

Хранители (Максимальная версия)/ Watchmen (Ultimate cut) (2009) BDRip


Страницы:  1, 2  След. 
 
RSS
Начать новую тему   Ответить на тему    Торрент-трекер NNM-Club -> Зарубежное кино -> Зарубежные Фильмы (HD*Rip/LQ, DVDRip, SATRip, VHSRip)
Автор Сообщение
мин-воды ®
 
Стаж: 9 лет
Сообщений: 2166
Ratio: 21,159
Поблагодарили: 56568
100%
Откуда: Минеральные Воды
neth_antilles.gif
Хранители (Максимальная версия)/ Watchmen (Ultimate cut) (2009) BDRip
«Правосудие настигнет каждого из нас. Не важно за что.»

Русское название: Хранители
Оригинальное название: Watchmen
Тип издания: Максимальная версия / Ultimate cut
Год выпуска: 2009
Страна: США
Жанр: Боевик, Детектив, Криминал, Триллер, Фантастика, Фэнтези
Описание фильма:
Действия фильма разворачиваются в параллельном мире. В мире, где супергерои стали неотъемлемой частью общества. Они несколько столетий стояли на страже покоя обычных людей, но всегда были те, кого этот порядок дел не устраивал. И вот один из супергероев узнает о том, что зреет страшный заговор, целью которого является дискредитировать всех супергероев, и тех, кто жил раньше, и тех, кто живет сейчас. Супергероям придется объединиться, чтобы противостоять новой, невиданной прежде угрозе. Супергерои встают за защиты собственной репутации, которая теперь находится под угрозой.

Режиссер: Зак Снайдер
Актеры: Джеффри Дин Морган, Билли Крудап, Мэттью Гуд, Карла Гуджино, Малин Акерман, Лаура Меннелл, Патрик Уилсон, Джеки Эрл Хэйли, Мэтт Фрюэр, Стивен МакХэтти

Продолжительность: 03:35:00
Перевод: Дублированный

Релиз группа: HQCLUB

СЭМПЛ

Дата мировой премьеры: 23 февраля 2009
Дата российской премьеры: 5 марта 2009, «Централ Партнершип»
Дата релиз на Blu-Ray: 1 сентября 2009, «Юниверсал Пикчерс Рус»
Дата релиз на DVD: 1 сентября 2009, «Юниверсал Пикчерс Рус»

Видеокодек: Xvid
Битрейт видео: ~1 993 Kbps
Размер кадра: 720х304
Качество видео: BDRip
Аудио 1:: 48 kHz, AC-3 Dolby Digital, 3/2 (L,C,R,l,r) + LFE ch, ~448.00 kbps avg (Русский)
Аудио 2:: 48 kHz, AC-3 Dolby Digital, 3/2 (L,C,R,l,r) + LFE ch, ~448.00 kbps avg (Английский)
General
Complete name : G:\................\Хранители (Максимальная версия) Watchmen (Ultimate cut) (2009) BDRip.avi
Format : AVI
Format/Info : Audio Video Interleave
Format profile : OpenDML
File size : 4.37 GiB
Duration : 3h 35mn
Overall bit rate : 2 902 Kbps
Movie name : Watchmen [Ultimate cut] (2009) BDRip
Director : Vиkt0R
Genre : Action/Drama/Crime/Fantasi
Writing application : VirtualDubModRus 1.5.10.2 (build 2542/release)

Video
ID : 0
Format : MPEG-4 Visual
Format profile : Advanced Simple@L5
Format settings, BVOP : 1
Format settings, QPel : No
Format settings, GMC : No warppoints
Format settings, Matrix : Custom
Codec ID : XVID
Codec ID/Hint : XviD
Duration : 3h 35mn
Bit rate : 1 993 Kbps
Width : 720 pixels
Height : 304 pixels
Display aspect ratio : 2.35:1
Frame rate : 23.976 fps
Color space : YUV
Chroma subsampling : 4:2:0
Bit depth : 8 bits
Scan type : Progressive
Compression mode : Lossy
Bits/(Pixel*Frame) : 0.380
Stream size : 3.00 GiB (69%)
Writing library : XviD 1.2.1 (UTC 2008-12-04)

Audio #1
ID : 1
Format : AC-3
Format/Info : Audio Coding 3
Mode extension : CM (complete main)
Codec ID : 2000
Duration : 3h 35mn
Bit rate mode : Constant
Bit rate : 448 Kbps
Channel(s) : 6 channels
Channel positions : Front: L C R, Side: L R, LFE
Sampling rate : 48.0 KHz
Bit depth : 16 bits
Compression mode : Lossy
Stream size : 690 MiB (15%)
Alignment : Split accross interleaves
Interleave, duration : 42 ms (1.00 video frame)

Audio #2
ID : 2
Format : AC-3
Format/Info : Audio Coding 3
Mode extension : CM (complete main)
Codec ID : 2000
Duration : 3h 35mn
Bit rate mode : Constant
Bit rate : 448 Kbps
Channel(s) : 6 channels
Channel positions : Front: L C R, Side: L R, LFE
Sampling rate : 48.0 KHz
Bit depth : 16 bits
Compression mode : Lossy
Stream size : 690 MiB (15%)
Alignment : Split accross interleaves
Interleave, duration : 42 ms (1.00 video frame)

Скриншоты:




Время раздачи: с 09:00 до 22:00
[NNM-Club.ru]_Hraniteli (Maksimal'naya versiya) Watchmen (Ultimate cut) (2009) BDRip.avi.torrent
 Торрент: Платиновая раздача  Зарегистрирован
 
Скачать


Примагнититься
 Зарегистрирован:   01 Янв 2012 16:49:43
 Размер:   4,37 GB  (
 Рейтинг:   4,7 (Голосов: 168)
 Поблагодарили:   525
 Проверка:   Оформление проверено модератором 03 Янв 2012 11:15:22
Как cкачать  ·  Как раздать  ·  Правильно оформить  ·  Поднять ратио!  
SpyNetMax
Стаж: 8 лет 2 мес.
Сообщений: 19
Ratio: 3,897
Раздал: 136 GB
Откуда: ва ты?
ukraine.gif
Когда он появился так и немог его понять. Может сейчай повезет =)

Добавлено спустя 2 минуты 42 секунды:

Зы. спасибо
мин-воды ®
 
Стаж: 9 лет
Сообщений: 2166
Ratio: 21,159
Поблагодарили: 56568
100%
Откуда: Минеральные Воды
neth_antilles.gif
SpyNetMax писал(а):
Когда он появился так и немог его понять. Может сейчай повезет

да по времени просмотра, прям Аватар!
473577249PL
Стаж: 9 лет 9 мес.
Сообщений: 341
Ratio: 420,619
Поблагодарили: 46748
Откуда: Воронеж
logo.gif
Сид а-у...... :(

Добавлено спустя 15 секунд:

Время раздачи: с 09:00 до 22:00 :нет:

_________________
batonchik
Куратор Видео
RG Releasers
Котоаплоадер 6000+
 
Стаж: 12 лет
Сообщений: 25464
Ratio: 89K
Раздал: 6,7921 PB
Поблагодарили: 1316039
100%
Откуда: из лесу
ussr.gif
Цитата:
2.1 Размер обложки не должен превышать 640*480 (480*640) пикселей
krasnovv
Стаж: 12 лет 3 мес.
Сообщений: 44
Ratio: 17,019
100%
Откуда: Из леса
russia.gif
Слишком растянут фильм. Сюжет как то не зацепил, а вот актеры и картинка понравились.
xaosland2
Стаж: 8 лет 5 мес.
Сообщений: 19
Ratio: 3,545
14.65%
russia.gif
не фильм а тягомотина !!! не тратьте время ! кое как с пятого подхода посмотрел !
мин-воды ®
 
Стаж: 9 лет
Сообщений: 2166
Ratio: 21,159
Поблагодарили: 56568
100%
Откуда: Минеральные Воды
neth_antilles.gif
xaosland2 писал(а):
не фильм а тягомотина !!! не тратьте время ! кое как с пятого подхода посмотрел !

есть короче версия, без тягомотины!
Mechanix2000
Стаж: 9 лет 2 мес.
Сообщений: 135
Ratio: 4,026
14.91%
russia.gif
Фильм отличный,серьёзная работа
Vugluscr
Стаж: 9 лет 11 мес.
Сообщений: 719
Ratio: 2,115
100%
djibouti.gif
Обожаю посты "кино нипанравилас".
Second134
Стаж: 9 лет 8 мес.
Сообщений: 39
Ratio: 6,798
15.6%
russia.gif
какие сцены они добавили в этой версии
Grey4eg
Стаж: 9 лет 9 мес.
Сообщений: 147
Ratio: 8,413
29.97%
Откуда: Тобольск
ussr.gif
На врезках перевод закадровый, многоголосый, на 26-й минуте попался фрагмент вообще без перевода. Сабов нет. Нет ли у кого сабов под максимальную версию?
svserghiy
Стаж: 10 лет 4 мес.
Сообщений: 36
Ratio: 7,948
55.7%
Откуда: Украина, Полтава
ukraine.gif
фильм мне тоже понравился, а вот ток кто переводил - М..к - вообщем плохой человек, неумный, английский перевод иногда громче русского. теперь ищу дорожку. зачем спрашивается делать то, что другие будут переделывать?
himera132
Стаж: 9 лет 8 мес.
Сообщений: 7
Ratio: 3,426
42.86%
несколько моментов без перевода (вставки где сцены про любителя комиксов и продавца газет)
жаль в фильме не показали историю старого совы =\
а в остальном просто суперски перенесли комикс на экран.. один в один (почти =))
1234567890
Стаж: 12 лет 10 мес.
Сообщений: 208
Ratio: 3,971
18.89%
russia.gif
По традиции за название файла на русском - спасибо.

_________________
...and justice 4 all
Показать сообщения:   
Начать новую тему   Ответить на тему    Торрент-трекер NNM-Club -> Зарубежное кино -> Зарубежные Фильмы (HD*Rip/LQ, DVDRip, SATRip, VHSRip) Часовой пояс: GMT + 3
Страницы:  1, 2  След.
Страница 1 из 2