Классический форум-трекер
canvas not supported
Нас вместе: 4 084 037
Платим за отзывы

Kevin Kern - Enchanted Piano (2011) [APE|Lossless]<New Age ,Piano>


 
 
RSS
Начать новую тему   Ответить на тему    Торрент-трекер NNM-Club -> Other Styles -> New Age/Meditative/Relax (Lossless)
Автор Сообщение
DeathLiKe ®
Сталкер
Стаж: 9 лет 5 мес.
Сообщений: 3298
Ratio: 270,046
Поблагодарили: 47114
100%
Kevin Kern - Enchanted Piano (2011)
Год: 2011
Жанр: New Age , Piano
Продолжительность: 00:43:00

Кодек: APE
Битрейт: Lossless
Тип рипа: image + .cue

Треклист:
01. Pastel Reflections [04:16]
02. Through the Arbor [03:23]
03. Imagination's Key [03:21]
04. A Gentle Whisper [03:57]
05. Sundial Dreams [04:06]
06. Childhood Remembered [04:05]
07. Remembering the light [04:05]
08. I Am Always Right Here [03:17]
09. Into the Realm [03:38]
10. Hide and Seek [04:09]
11. In The Enchanted Garden [05:07]
Код: выделить все

Exact Audio Copy V1.0 beta 1 from 15. November 2010

EAC extraction logfile from 24. December 2011, 21:20

Kevin Kern / Enchanted Piano

Used drive  : DTSOFT  BDROM   Adapter: 2  ID: 0

Read mode               : Secure
Utilize accurate stream : Yes
Defeat audio cache      : Yes
Make use of C2 pointers : No

Read offset correction                      : 0
Overread into Lead-In and Lead-Out          : No
Fill up missing offset samples with silence : Yes
Delete leading and trailing silent blocks   : No
Null samples used in CRC calculations       : No
Used interface                              : Native Win32 interface for Win NT & 2000

Used output format : Internal WAV Routines
Sample format      : 44.100 Hz; 16 Bit; Stereo

TOC of the extracted CD

     Track |   Start  |  Length  | Start sector | End sector
    ---------------------------------------------------------
        1  |  0:00.00 |  4:16.46 |         0    |    19245
        2  |  4:16.46 |  3:23.29 |     19246    |    34499
        3  |  7:40.00 |  3:21.38 |     34500    |    49612
        4  | 11:01.38 |  3:57.32 |     49613    |    67419
        5  | 14:58.70 |  4:06.37 |     67420    |    85906
        6  | 19:05.32 |  4:05.69 |     85907    |   104350
        7  | 23:11.26 |  4:05.38 |    104351    |   122763
        8  | 27:16.64 |  3:17.30 |    122764    |   137568
        9  | 30:34.19 |  3:38.67 |    137569    |   153985
       10  | 34:13.11 |  4:09.44 |    153986    |   172704
       11  | 38:22.55 |  5:07.57 |    172705    |   195786

Range status and errors

Selected range

     Filename C:\Papulya's Home\11KKernEnchPi\Kevin Kern - Enchanted Piano.wav

     Peak level 97.7 %
     Extraction speed 3.7 X
     Range quality 100.0 %
     Copy CRC 91A1DCB4
     Copy OK

No errors occurred

AccurateRip summary

Track  1  cannot be verified as accurate (confidence 1)  [642C80AE], AccurateRip returned [348BC3A6]
Track  2  cannot be verified as accurate (confidence 1)  [0C2C89C5], AccurateRip returned [C2BD56A6]
Track  3  cannot be verified as accurate (confidence 1)  [C1E2A280], AccurateRip returned [6A90128D]
Track  4  cannot be verified as accurate (confidence 1)  [717C235B], AccurateRip returned [C6D8BD11]
Track  5  cannot be verified as accurate (confidence 1)  [E92C242A], AccurateRip returned [EB5791A9]
Track  6  cannot be verified as accurate (confidence 1)  [3A4C67F1], AccurateRip returned [43055EEC]
Track  7  cannot be verified as accurate (confidence 1)  [E8C44865], AccurateRip returned [DB00F7C3]
Track  8  cannot be verified as accurate (confidence 1)  [B1674AF8], AccurateRip returned [EF1E2770]
Track  9  cannot be verified as accurate (confidence 1)  [EEE94F01], AccurateRip returned [77C04D09]
Track 10  cannot be verified as accurate (confidence 1)  [189D1B18], AccurateRip returned [73E4E6FD]
Track 11  cannot be verified as accurate (confidence 1)  [B10901A7], AccurateRip returned [E522835A]

No tracks could be verified as accurate
You may have a different pressing from the one(s) in the database

End of status report

==== Log checksum 417FDCCAA8ED6C57A3C18A3A00EED8155324690F61462643DCF0036C5B015904 ====
Код: выделить все

-----------------------

DON'T MODIFY THIS FILE

-----------------------

PERFORMER: auCDtect Task Manager, ver. 1.5.1RC6 build 1.5.1.7
Copyright (c) 2008-2010 y-soft. All rights reserved
http://y-soft.org

ANALYZER: auCDtect: CD records authenticity detector, version 0.8.2
Copyright (c) 2004 Oleg Berngardt. All rights reserved.
Copyright (c) 2004 Alexander Djourik. All rights reserved.

FILE: Kevin Kern - Enchanted Piano.ape
  Size: 156434056 Hash: E4ED857B15DE35F56C2AC56424B45A72 Accuracy: -m0
  Conclusion: CDDA 42%
  Signature: EDB8CEE36C097503FEB7308D523B6FF6EA30D762
Время раздачи: 24/7
[NNM-Club.ru]_Kevin Kern - Enchanted Piano (2011).torrent
 Торрент: Платиновая раздача  Зарегистрирован
 
Скачать


Примагнититься
 Зарегистрирован:   11 Ноя 2019 18:17:54
 Размер:   159 MB  (
 Рейтинг:   4,5 (Голосов: 20)
 Поблагодарили:   98
 Проверка:   Оформление проверено модератором 11 Ноя 2019 22:59:43
Как cкачать  ·  Как раздать  ·  Правильно оформить  ·  Поднять ратио!  
Loading...
NorthOn
 
Админ
Стаж: 13 лет 4 мес.
Сообщений: 13084
Ratio: 1090,451
Поблагодарили: 14421
100%
nnm-club.gif
Торрент обновлен в рамках акции Включаем DHT в древних раздачах
Теперь вам нужно его скачать и открыть в торрент-клиенте, указав в качестве места сохранения раздаваемый файл или папку.

_________________
Либо я найду путь, либо проложу его...
Показать сообщения:   
Начать новую тему   Ответить на тему    Торрент-трекер NNM-Club -> Other Styles -> New Age/Meditative/Relax (Lossless) Часовой пояс: GMT + 3
Страница 1 из 1