Классический форум-трекер
canvas not supported
Нас вместе: 4 083 932
Платим за отзывы

Полярный экспресс / The Polar Express (2004) DVD9


 
 
RSS
Начать новую тему   Ответить на тему    Торрент-трекер NNM-Club -> Архив торрентов -> Архив Мультфильмов
Автор Сообщение
Алеся ®
Стаж: 9 лет 4 мес.
Сообщений: 154
Ratio: 111,762
Раздал: 212 GB
Поблагодарили: 5892
100%
ussr.gif
Полярный экспресс / The Polar Express (2004) DVD9
Русское название: Полярный экспресс
Оригинальное название: The Polar Express
Год выпуска: 2004
Жанр: Детский, Рисованная анимация, Приключения

Перевод: Многоголосый закадровый, профессиональный
Вид субтитров: Вшитые отключаемые
Язык субтитров: Английский, Арабский (через меню диска включаются только английские)



Дата мировой премьеры: 21.10.2004
Дата выхода DVD/Blu-Ray релиза: 17.11.2009

Сборы в мире: 306 133 860$

Режиссер: Роберт Земекис
Персонажи: Том Хэнкс, Майкл Джитер, Нона Гей, Питер Сколари, Эдди Дизен, Лесли Хартер, Земекис Чарльз, Флайшер Джош, Эли Марк, Мендонка Роландас Хендрикс

Описание фильма:
Экранизация одноименной детской книги о необыкновенном путешествии маленького мальчика на волшебном поезде «Полярный экспресс» на Северный полюс к Санта-Клаусу в канун Рождества…

Продолжительность: (Трейлер) 00:02:16 (Полная версия) 01:35:46
Качество видео: DVD9

Видео: MPEG 2, 720x576 (16:9), 25.000 fps, 7 500 Kbps (0.519 bit/pixel)
Аудио #1: AC-3, 48.0 KHz, 6 ch, 448 Kbps, CBR (Русский многоголосый закадровый)
Аудио #2: DTS, 48.0 KHz, 6 ch, 384 Kbps, CBR (Русский многоголосый закадровый)
Аудио #3: DTS, 48.0 KHz, 6 ch, 755 Kbps, CBR (Английский оригинальный)
Полное имя: D:\Мои видеозаписи\Семейное\Полярный экспресс\VIDEO_TS\VIDEO_TS.BUP
Формат: DVD Video
Профиль формата: Menu
Размер файла: 12,0 Кбайт
Режим общего битрейта: Переменный

Видео
Идентификатор: 224 (0xE0)
Формат: MPEG Video
Версия формата: Version 2
Вид битрейта: Переменный
Ширина: 720 пикселей
Высота: 576 пикселей
Соотношение сторон: 16:9
Частота кадров: 25,000 кадров/сек
Стандарт вещания: PAL
Метод сжатия: С потерями

Аудио
Формат: AC-3
Формат/Информация: Audio Coding 3
Каналы: 2 канала
Частота: 48,0 КГц
Метод сжатия: С потерями

Текст
Формат: RLE
Формат/Информация: Run-length encoding
Битовая глубина: 2 бит

Общее
Полное имя: D:\Мои видеозаписи\Семейное\Полярный экспресс\VIDEO_TS\VIDEO_TS.IFO
Формат: DVD Video
Профиль формата: Menu
Размер файла: 12,0 Кбайт
Режим общего битрейта: Переменный

Видео
Идентификатор: 224 (0xE0)
Формат: MPEG Video
Версия формата: Version 2
Вид битрейта: Переменный
Ширина: 720 пикселей
Высота: 576 пикселей
Соотношение сторон: 16:9
Частота кадров: 25,000 кадров/сек
Стандарт вещания: PAL
Метод сжатия: С потерями

Аудио
Формат: AC-3
Формат/Информация: Audio Coding 3
Каналы: 2 канала
Частота: 48,0 КГц
Метод сжатия: С потерями

Текст
Формат: RLE
Формат/Информация: Run-length encoding
Битовая глубина: 2 бит

Общее
Полное имя: D:\Мои видеозаписи\Семейное\Полярный экспресс\VIDEO_TS\VIDEO_TS.VOB
Формат: MPEG-PS
Размер файла: 66,9 Мбайт
Продолжительность: 6 с. 80 мс.
Общий поток: 92,3 Мбит/сек

Видео
Идентификатор: 224 (0xE0)
Формат: MPEG Video
Версия формата: Version 2
Профиль формата: Main@Main
Параметр BVOP формата: Да
Параметр матрицы формата: По умолчанию
Параметр GOP формата: M=3, N=15
Продолжительность: 6 с. 80 мс.
Битрейт: 90,3 Мбит/сек
Максимальный битрейт: 5500 Кбит/сек
Ширина: 720 пикселей
Высота: 576 пикселей
Соотношение сторон: 16:9
Частота кадров: 25,000 кадров/сек
Стандарт вещания: PAL
Цветовое пространство: YUV
Субдискретизация насыщенности: 4:2:0
Битовая глубина: 8 бит
Тип развёртки: Прогрессивная
Метод сжатия: С потерями
Бит/(Пиксели*Кадры): 8.706
Размер потока: 65,4 Мбайт (98%)
Основные цвета: BT.470-2 System B, BT.470-2 System G
Характеристики трансфера: BT.470-2 System B, BT.470-2 System G
Коэффициенты матрицы: SMPTE 170M

Аудио
Идентификатор: 189 (0xBD)-128 (0x80)
Формат: AC-3
Формат/Информация: Audio Coding 3
Расширение режима: CM (complete main)
Режим смешивания: DVD-Video
Продолжительность: 4 с. 864 мс.
Вид битрейта: Постоянный
Битрейт: 192 Кбит/сек
Каналы: 2 канала
Расположение каналов: Front: L R
Частота: 48,0 КГц
Битовая глубина: 16 бит
Метод сжатия: С потерями
Размер потока: 114 Кбайт (0%)

Меню

Общее
Полное имя: D:\Мои видеозаписи\Семейное\Полярный экспресс\VIDEO_TS\VTS_01_0.BUP
Формат: DVD Video
Профиль формата: Program
Размер файла: 60,0 Кбайт
Продолжительность: 1 ч. 35 м.
Режим общего битрейта: Переменный
Общий поток: 85 бит/сек

Видео
Идентификатор: 224 (0xE0)
Формат: MPEG Video
Версия формата: Version 2
Продолжительность: 1 ч. 35 м.
Вид битрейта: Переменный
Ширина: 720 пикселей
Высота: 576 пикселей
Соотношение сторон: 16:9
Частота кадров: 25,000 кадров/сек
Стандарт вещания: PAL
Метод сжатия: С потерями

Аудио #1
Идентификатор: 128 (0x80)
Формат: AC-3
Формат/Информация: Audio Coding 3
Продолжительность: 1 ч. 35 м.
Каналы: 6 каналов
Частота: 48,0 КГц
Метод сжатия: С потерями
Язык: Russian

Аудио #2
Идентификатор: 137 (0x89)
Формат: DTS
Формат/Информация: Digital Theater Systems
Продолжительность: 1 ч. 35 м.
Каналы: 6 каналов
Частота: 48,0 КГц
Метод сжатия: С потерями
Язык: Russian

Аудио #3
Идентификатор: 130 (0x82)
Формат: AC-3
Формат/Информация: Audio Coding 3
Продолжительность: 1 ч. 35 м.
Каналы: 6 каналов
Частота: 48,0 КГц
Метод сжатия: С потерями
Язык: English

Текст #1
Идентификатор: 32 (0x20)
Формат: RLE
Формат/Информация: Run-length encoding
Битовая глубина: 2 бит
Язык: English

Текст #2
Идентификатор: 33 (0x21)
Формат: RLE
Формат/Информация: Run-length encoding
Битовая глубина: 2 бит
Язык: Arabic

Меню
Продолжительность: 1 ч. 35 м.
00:00:00.000: Chapter 1
00:04:47.520: Chapter 2
00:14:31.160: Chapter 3
00:17:27.280: Chapter 4
00:22:04.200: Chapter 5
00:26:50.920: Chapter 6
00:32:13.280: Chapter 7
00:33:51.200: Chapter 8
00:39:47.680: Chapter 9
00:42:47.880: Chapter 10
00:45:02.800: Chapter 11
00:47:10.280: Chapter 12
00:51:07.200: Chapter 13
00:54:50.120: Chapter 14
00:58:31.320: Chapter 15
01:03:06.560: Chapter 16
01:06:55.800: Chapter 17
01:09:49.520: Chapter 18
01:13:13.160: Chapter 19
01:16:14.840: Chapter 20
01:18:23.160: Chapter 21
01:23:28.440: Chapter 22
01:27:29.200: Chapter 23
List (Audio): 0 / 1 / 2
List (Subtitles 4/3): 0 / 0
List (Subtitles Wide): 0 / 1
List (Subtitles Letterbox): 0 / 1
List (Subtitles Pan&Scan): 0 / 0

Общее
Полное имя: D:\Мои видеозаписи\Семейное\Полярный экспресс\VIDEO_TS\VTS_01_0.IFO
Формат: DVD Video
Профиль формата: Program
Размер файла: 60,0 Кбайт
Продолжительность: 1 ч. 35 м.
Режим общего битрейта: Переменный
Общий поток: 85 бит/сек

Видео
Идентификатор: 224 (0xE0)
Формат: MPEG Video
Версия формата: Version 2
Продолжительность: 1 ч. 35 м.
Вид битрейта: Переменный
Ширина: 720 пикселей
Высота: 576 пикселей
Соотношение сторон: 16:9
Частота кадров: 25,000 кадров/сек
Стандарт вещания: PAL
Метод сжатия: С потерями

Аудио #1
Идентификатор: 128 (0x80)
Формат: AC-3
Формат/Информация: Audio Coding 3
Продолжительность: 1 ч. 35 м.
Каналы: 6 каналов
Частота: 48,0 КГц
Метод сжатия: С потерями
Язык: Russian

Аудио #2
Идентификатор: 137 (0x89)
Формат: DTS
Формат/Информация: Digital Theater Systems
Продолжительность: 1 ч. 35 м.
Каналы: 6 каналов
Частота: 48,0 КГц
Метод сжатия: С потерями
Язык: Russian

Аудио #3
Идентификатор: 130 (0x82)
Формат: AC-3
Формат/Информация: Audio Coding 3
Продолжительность: 1 ч. 35 м.
Каналы: 6 каналов
Частота: 48,0 КГц
Метод сжатия: С потерями
Язык: English

Текст #1
Идентификатор: 32 (0x20)
Формат: RLE
Формат/Информация: Run-length encoding
Битовая глубина: 2 бит
Язык: English

Текст #2
Идентификатор: 33 (0x21)
Формат: RLE
Формат/Информация: Run-length encoding
Битовая глубина: 2 бит
Язык: Arabic

Меню
Продолжительность: 1 ч. 35 м.
00:00:00.000: Chapter 1
00:04:47.520: Chapter 2
00:14:31.160: Chapter 3
00:17:27.280: Chapter 4
00:22:04.200: Chapter 5
00:26:50.920: Chapter 6
00:32:13.280: Chapter 7
00:33:51.200: Chapter 8
00:39:47.680: Chapter 9
00:42:47.880: Chapter 10
00:45:02.800: Chapter 11
00:47:10.280: Chapter 12
00:51:07.200: Chapter 13
00:54:50.120: Chapter 14
00:58:31.320: Chapter 15
01:03:06.560: Chapter 16
01:06:55.800: Chapter 17
01:09:49.520: Chapter 18
01:13:13.160: Chapter 19
01:16:14.840: Chapter 20
01:18:23.160: Chapter 21
01:23:28.440: Chapter 22
01:27:29.200: Chapter 23
List (Audio): 0 / 1 / 2
List (Subtitles 4/3): 0 / 0
List (Subtitles Wide): 0 / 1
List (Subtitles Letterbox): 0 / 1
List (Subtitles Pan&Scan): 0 / 0

Общее
Полное имя: D:\Мои видеозаписи\Семейное\Полярный экспресс\VIDEO_TS\VTS_01_0.VOB
Формат: MPEG-PS
Размер файла: 448 Кбайт
Продолжительность: 40 мс.
Общий поток: 91,8 Мбит/сек

Видео
Идентификатор: 224 (0xE0)
Формат: MPEG Video
Версия формата: Version 2
Профиль формата: Main@Main
Параметр BVOP формата: Нет
Параметр матрицы формата: Выборочная
Параметр GOP формата: N=1
Продолжительность: 40 мс.
Ширина: 720 пикселей
Высота: 576 пикселей
Соотношение сторон: 16:9
Частота кадров: 25,000 кадров/сек
Стандарт вещания: PAL
Цветовое пространство: YUV
Субдискретизация насыщенности: 4:2:0
Битовая глубина: 8 бит
Тип развёртки: Прогрессивная
Порядок развёртки: Верхнее поле первое
Метод сжатия: С потерями
Основные цвета: BT.470-2 System B, BT.470-2 System G
Характеристики трансфера: BT.470-2 System B, BT.470-2 System G
Коэффициенты матрицы: BT.470-2 System B, BT.470-2 System G

Текст #1
Идентификатор: 189 (0xBD)-32 (0x20)
Формат: RLE
Формат/Информация: Run-length encoding
Режим смешивания: DVD-Video

Текст #2
Идентификатор: 189 (0xBD)-33 (0x21)
Формат: RLE
Формат/Информация: Run-length encoding
Режим смешивания: DVD-Video

Меню

Общее
Полное имя: D:\Мои видеозаписи\Семейное\Полярный экспресс\VIDEO_TS\VTS_01_1.VOB
Формат: MPEG-PS
Размер файла: 1024 Мбайт
Продолжительность: 19 м.
Режим общего битрейта: Переменный
Общий поток: 7160 Кбит/сек

Видео
Идентификатор: 224 (0xE0)
Формат: MPEG Video
Версия формата: Version 2
Профиль формата: Main@Main
Параметр BVOP формата: Да
Параметр матрицы формата: Выборочная
Параметр GOP формата: M=3, N=15
Продолжительность: 19 м.
Вид битрейта: Переменный
Битрейт: 5431 Кбит/сек
Максимальный битрейт: 7500 Кбит/сек
Ширина: 720 пикселей
Высота: 576 пикселей
Соотношение сторон: 16:9
Частота кадров: 25,000 кадров/сек
Стандарт вещания: PAL
Цветовое пространство: YUV
Субдискретизация насыщенности: 4:2:0
Битовая глубина: 8 бит
Тип развёртки: Прогрессивная
Порядок развёртки: Верхнее поле первое
Метод сжатия: С потерями
Бит/(Пиксели*Кадры): 0.524
Размер потока: 776 Мбайт (76%)

Аудио #1
Идентификатор: 189 (0xBD)-128 (0x80)
Формат: AC-3
Формат/Информация: Audio Coding 3
Расширение режима: CM (complete main)
Режим смешивания: DVD-Video
Продолжительность: 19 м.
Вид битрейта: Постоянный
Битрейт: 448 Кбит/сек
Каналы: 6 каналов
Расположение каналов: Front: L C R, Side: L R, LFE
Частота: 48,0 КГц
Битовая глубина: 16 бит
Метод сжатия: С потерями
Задержка видео: -80 мс.
Размер потока: 64,0 Мбайт (6%)

Аудио #2
Идентификатор: 189 (0xBD)-130 (0x82)
Формат: AC-3
Формат/Информация: Audio Coding 3
Расширение режима: CM (complete main)
Режим смешивания: DVD-Video
Продолжительность: 19 м.
Вид битрейта: Постоянный
Битрейт: 384 Кбит/сек
Каналы: 6 каналов
Расположение каналов: Front: L C R, Side: L R, LFE
Частота: 48,0 КГц
Битовая глубина: 16 бит
Метод сжатия: С потерями
Задержка видео: -80 мс.
Размер потока: 54,9 Мбайт (5%)

Аудио #3
Идентификатор: 189 (0xBD)-137 (0x89)
Формат: DTS
Формат/Информация: Digital Theater Systems
Режим смешивания: DVD-Video
Продолжительность: 19 м.
Вид битрейта: Постоянный
Битрейт: 755 Кбит/сек
Каналы: 6 каналов
Расположение каналов: Front: L C R, Side: L R, LFE
Частота: 48,0 КГц
Битовая глубина: 24 бит
Метод сжатия: С потерями
Задержка видео: -80 мс.
Размер потока: 108 Мбайт (11%)

Меню

Общее
Полное имя: D:\Мои видеозаписи\Семейное\Полярный экспресс\VIDEO_TS\VTS_01_2.VOB
Формат: MPEG-PS
Размер файла: 1024 Мбайт
Продолжительность: 20 м.
Режим общего битрейта: Переменный
Общий поток: 7104 Кбит/сек

Видео
Идентификатор: 224 (0xE0)
Формат: MPEG Video
Версия формата: Version 2
Профиль формата: Main@Main
Параметр BVOP формата: Да
Параметр матрицы формата: Выборочная
Параметр GOP формата: M=3, N=15
Продолжительность: 20 м.
Вид битрейта: Переменный
Битрейт: 5376 Кбит/сек
Максимальный битрейт: 7500 Кбит/сек
Ширина: 720 пикселей
Высота: 576 пикселей
Соотношение сторон: 16:9
Частота кадров: 25,000 кадров/сек
Стандарт вещания: PAL
Цветовое пространство: YUV
Субдискретизация насыщенности: 4:2:0
Битовая глубина: 8 бит
Тип развёртки: Прогрессивная
Порядок развёртки: Верхнее поле первое
Метод сжатия: С потерями
Бит/(Пиксели*Кадры): 0.519
Размер потока: 775 Мбайт (76%)

Общее
Полное имя: D:\Мои видеозаписи\Семейное\Полярный экспресс\VIDEO_TS\VTS_02_1.VOB
Формат: MPEG-PS
Размер файла: 77,3 Мбайт
Продолжительность: 2 м. 16 с.
Режим общего битрейта: Переменный
Общий поток: 4749 Кбит/сек

Видео
Идентификатор: 224 (0xE0)
Формат: MPEG Video
Версия формата: Version 2
Профиль формата: Main@Main
Параметр BVOP формата: Да
Параметр матрицы формата: Выборочная
Параметр GOP формата: M=3, N=15
Продолжительность: 2 м. 16 с.
Вид битрейта: Переменный
Битрейт: 4463 Кбит/сек
Максимальный битрейт: 6500 Кбит/сек
Ширина: 720 пикселей
Высота: 576 пикселей
Соотношение сторон: 16:9
Частота кадров: 25,000 кадров/сек
Стандарт вещания: PAL
Цветовое пространство: YUV
Субдискретизация насыщенности: 4:2:0
Битовая глубина: 8 бит
Тип развёртки: Прогрессивная
Порядок развёртки: Верхнее поле первое
Метод сжатия: С потерями
Бит/(Пиксели*Кадры): 0.430
Размер потока: 72,6 Мбайт (94%)

Аудио
Идентификатор: 189 (0xBD)-128 (0x80)
Формат: AC-3
Формат/Информация: Audio Coding 3
Профиль формата: Dolby Digital
Расширение режима: CM (complete main)
Режим смешивания: DVD-Video
Продолжительность: 2 м. 16 с.
Вид битрейта: Постоянный
Битрейт: 192 Кбит/сек
Каналы: 2 канала
Расположение каналов: Front: L R
Частота: 48,0 КГц
Битовая глубина: 16 бит
Метод сжатия: С потерями
Задержка видео: -80 мс.
Размер потока: 3,12 Мбайт (4%)


Скриншоты:


Время раздачи: С 10:00 до 20:00 (по возможности)
[NNM-Club.ru]_Polyarnyiy yekspress.torrent
 Торрент: Серебряная раздча  Зарегистрирован
 
Зарегистрируйтесь и скачайте торрент!
13,4 KB

Примагнититься
 Зарегистрирован:   03 Янв 2012 19:41:16
 Размер:   4,92 GB  (
 Рейтинг:   4,3 (Голосов: 16)
 Поблагодарили:   34
 Проверка:   Оформление проверено модератором 04 Янв 2012 14:46:11
Как cкачать  ·  Как раздать  ·  Правильно оформить  ·  Поднять ратио!  
Loading...
serega1884
Стаж: 9 лет 3 мес.
Сообщений: 335
Ratio: 6,873
100%
ukraine.gif
За 3 дня 46% !!! Скачал от vadi в другом месте очень быстро . :шок: Ну че ктонить скачал ? :огорчение: :огорчение: :огорчение:
Топик был перенесен из форума Зарубежные Мультфильмы (DVD, Сборники) в форум Архив Мультфильмов

Причина переноса: Seeder last seen: 2017-03-01

Исправил релиз - напиши ЛС almikl, дав ссылку на релиз.
Если нет ответа 24 часа - нажми на кнопку "Обратить внимание модераторов".
Показать сообщения:   
Начать новую тему   Ответить на тему    Торрент-трекер NNM-Club -> Архив торрентов -> Архив Мультфильмов Часовой пояс: GMT + 3
Страница 1 из 1