Классический форум-трекер
canvas not supported
Нас вместе: 4 093 999

Остаться в живых: Антология / Fritt vilt: Anthology (2006-2010) [720p] BDRip


 
 
RSS
Начать новую тему   Ответить на тему    Торрент-трекер NNM-Club -> Архив торрентов -> Архив Видео
Автор Сообщение
Lelya_K ®
Стаж: 8 лет 11 мес.
Сообщений: 5536
Ratio: 7169,418
Раздал: 109,3 TB
Поблагодарили: 620280
100%
Откуда: Московская область
nnm-club.gif
Остаться в живых / Fritt vilt (2006) BDRip
«Они не знали, что этот спуск станет последним...»

Русское название: Остаться в живых
Оригинальное название: Fritt vilt
Год выпуска: 2006
Производство: Fantefilm (Норвегия)
Жанр: Ужасы, триллер, драма
Перевод:
Профессиональный двухголосый, закадровый
Авторский одноголосый, закадровый [RussianGuy27]
Субтитры: Вшитые отключаемые
Язык субтитров: Английский

Режиссер: Роар Утхауг
Продюсер: Магне Лингнер, Мартин Сандлэнд, Эксел Хелглэнд
Актеры: Ингрид Болсай Бердал, Рольф Кристиан Ларсен, Томас Альф Ларсен, Андрэ Мартин Мидтстайген, Виктория Винги, Руне Мелби, Тони Лунде

Описание фильма:
В середине зимы, группа молодых людей поехала в Ютенхейм, покататься на сноубордах. В результате несчастного случая, один из них сломал ногу и они оказались в затруднительном положении, так как поблизости не было людей, а у телефона отсутствовал сигнал. В горах они набрели на заброшенный отель, но и оттуда они не могли вызвать помощь, так как телефонная линия давно вышла из строя. Стало ясно, что им придется переночевать в отеле, но ночью они увидели что то, что разубедило их в том, что они одни…



Дата мировой премьеры: 13 октября 2006
Дата выхода DVD релиза: 16 апреля 2009, «Мьюзик-Трейд»

Продолжительность: 01:33:30
Качество видео: BDRip

Видеокодек: MPEG4_AVC / H.264
Размер кадра: 1280x544
Битрейт видео: ~5183 kbps, Бит/(Пиксели*Кадры): 0.298
Аудио 1: AC3 5.1, 448 kbps - Русский [Профессиональный двухголосый]
Аудио 2: AC3 2.0, 320 kbps - Русский [Одноголосый - RussianGuy27]
Аудио 3: DTS 5.1, 1510 kbps - Норвежский [Оригинал]
От кого угодно, но от Норвегии мы такого явно не ожидали…
Картина «Холодная добыча» не американского производства, но, за время просмотра, складывается впечатление, что это даже пошло ей на пользу. Благодаря норвежским кинопостановщикам мы имеем свежий взгляд на слэшеры.
По сюжету фильма, пятеро друзей едут отдохнуть в горы, но эта прогулка заканчивается кошмаром, когда один из них ломает ногу, что и вынуждает их найти ночлег. Находят они его в заброшенной гостинице в долине. Однако, это давно забытое всеми место не так безобидно, как может показаться на первый взгляд….
В картине, несомненно, больше плюсов, чем минусов. К плюсам, конечно, относятся:
Потрясающее музыкальное сопровождение, которое ни сколько не нарушает общее восприятие картины, а, наоборот, дополняет его. Великолепная игра молодых актеров, за персонажей которых действительно переживаешь по ходу просмотра фильма. Великолепно удавшийся маньяк — огромный верзила с ледорубом и в довольно устрашающей маске. Отменная режиссура, нет неприятностей с камерой. Ну, и, конечно — же, невероятно красивые горные пейзажи, от которых просто нельзя оторвать глаз.
Но в фильме есть и недостатки. Например, там почти нет крови, да и вообще резни как таковой. Это, конечно вовсе не минус, особенно при таком великолепно выдержанном саспенсе, но, как мне кажется, это пошло бы фильму только на пользу.
В целом, это — настоящий образец того, как надо снимать современные слэшеры в лучших традициях «старой школы».

9 из 10
Полное имя : D:\Остаться.в.живых- Fritt.vilt.(2006).BDRip.720p.mkv
Формат : Matroska
Версия формата : Version 2
Размер файла : 4,87 Гбайт
Продолжительность : 1 ч. 33 м.
Общий поток : 7459 Кбит/сек
Дата кодирования : UTC 2010-01-21 09:27:38
Программа кодирования : mkvmerge v2.9.8 ('C'est le bon') built on Aug 13 2009 12:49:06
Библиотека кодирования : libebml v0.7.7 + libmatroska v0.8.1

Видео
Идентификатор : 1
Формат : AVC
Формат/Информация : Advanced Video Codec
Профиль формата : High@L4.1
Параметр CABAC формата : Да
Параметр ReFrames формата : 5 кадров
Идентификатор кодека : V_MPEG4/ISO/AVC
Продолжительность : 1 ч. 33 м.
Битрейт : 5183 Кбит/сек
Ширина : 1280 пикс.
Высота : 544 пикс.
Соотношение сторон : 2,35:1
Частота кадров : 25,000 кадр/сек
Цветовое пространство : YUV
Подвыборка цветности : 4:2:0
Битовая глубина : 8 бит
Тип развёртки : Прогрессивная
Бит/(Пиксели*Кадры) : 0.298
Размер потока : 3,29 Гбайт (67%)
Библиотека кодирования : x264 core 80 r1376 3feaec2
Настройки программы : cabac=1 / ref=5 / deblock=1:0:0 / analyse=0x3:0x2 / me=umh / subme=7 / psy=1 / psy_rd=1.0:0.0 / mixed_ref=1 / me_range=16 / chroma_me=1 / trellis=1 / 8x8dct=1 / cqm=0 / deadzone=21,11 / fast_pskip=0 / chroma_qp_offset=-2 / threads=6 / sliced_threads=0 / nr=0 / decimate=1 / mbaff=0 / constrained_intra=0 / bframes=3 / b_pyramid=2 / b_adapt=1 / b_bias=0 / direct=3 / wpredb=1 / wpredp=0 / keyint=250 / keyint_min=25 / scenecut=40 / rc=2pass / mbtree=0 / bitrate=5183 / ratetol=1.0 / qcomp=0.60 / qpmin=10 / qpmax=51 / qpstep=4 / cplxblur=20.0 / qblur=0.5 / ip_ratio=1.40 / pb_ratio=1.30 / aq=1:1.00
Язык : Norwegian

Аудио #1
Идентификатор : 2
Формат : AC-3
Формат/Информация : Audio Coding 3
Расширение режима : CM (complete main)
Идентификатор кодека : A_AC3
Продолжительность : 1 ч. 33 м.
Вид битрейта : Постоянный
Битрейт : 448 Кбит/сек
Каналы : 6 каналов
Расположение каналов : Front: L C R, Side: L R, LFE
Частота : 48,0 КГц
Битовая глубина : 16 бит
Метод сжатия : С потерями
Размер потока : 300 Мбайт (6%)
Заголовок : MVO (AC3 DD 5.1 448 Kbps)
Язык : Russian

Аудио #2
Идентификатор : 3
Формат : AC-3
Формат/Информация : Audio Coding 3
Расширение режима : CM (complete main)
Идентификатор кодека : A_AC3
Продолжительность : 1 ч. 33 м.
Вид битрейта : Постоянный
Битрейт : 320 Кбит/сек
Каналы : 2 канала
Расположение каналов : Front: L R
Частота : 48,0 КГц
Битовая глубина : 16 бит
Метод сжатия : С потерями
Размер потока : 214 Мбайт (4%)
Заголовок : AVO [Russianguy27] (AC3 DD 2.0 320 Kbps)
Язык : Russian

Аудио #3
Идентификатор : 4
Формат : DTS
Формат/Информация : Digital Theater Systems
Идентификатор кодека : A_DTS
Продолжительность : 1 ч. 33 м.
Вид битрейта : Постоянный
Битрейт : 1510 Кбит/сек
Каналы : 6 каналов
Расположение каналов : Front: L C R, Side: L R, LFE
Частота : 48,0 КГц
Битовая глубина : 24 бит
Метод сжатия : С потерями
Размер потока : 1010 Мбайт (20%)
Заголовок : Original (DTS 5.1 1536 Kbps)
Язык : Norwegian

Текст
Идентификатор : 5
Формат : UTF-8
Идентификатор кодека : S_TEXT/UTF8
Идентификатор кодека/Информация : UTF-8 Plain Text
Язык : English
Скриншоты:


Остаться в живых: Воскрешение / Fritt vilt II (2008) BDRip
«Marerittet Fortsetter 10.Oktober...»

Русское название: Остаться в живых: Воскрешение
Оригинальное название: Fritt vilt II
Год выпуска: 2008
Производство: Fantefilm (Норвегия)
Жанр: Ужасы, триллер, драма
Перевод:
Профессиональный двухголосый, закадровый
Авторский одноголосый, закадровый [RussianGuy27]
Субтитры: Вшитые отключаемые
Язык субтитров: Английский, норвежский, датский, финский, шведский

Режиссер: Матс Штенберг
Продюсер: Кристиан Синкеруд, Мартин Сандлэнд, Томас Лёберг
Актеры: Ингрид Болсай Бердал, Йоханна Мерк, Фридтьов Сохейм, Пер Шаанинг, Андреас Каппелен, Матс Элдоен

Описание фильма:
Главная героиня, Жанник, просыпается в больнице. Все ее друзья мертвы. И она рассказывает о всех событиях произошедших с ней и ее друзьями на днях в горах. Полиция скептически отнеслась к ее показаниям, но решила проверить на всякий случай. Все ее слова подтвердились и все трупы, включая труп убийцы доставили в ту больницу. Идя через темные больничные коридоры, она думает, что ей больше ничего не угрожает. Но кошмар еще не закончился!



Дата мировой премьеры: 10 октября 2008

Продолжительность: 01:29:44
Качество видео: BDRip

Видеокодек: MPEG4_AVC / H.264
Размер кадра: 1280x516
Битрейт видео: ~5435 kbps, Бит/(Пиксели*Кадры): 0.343
Аудио 1: AC3 5.1, 640 kbps - Русский [Одноголосый - RussianGuy27]
Аудио 2: AC3 5.1, 384 kbps - Русский [Профессиональный двухголосый]
Аудио 3: DTS 5.1, 1510 kbps - Норвежский [Оригинал]
Норвежцы не перестают удивлять. Казалось бы идея в основе своей исчерпала себя, однако эта преграда для Матса Штенберга оказалась не такой уж и непреодолимой. Что вылилось в очень даже достойное продолжение. Итак, «Холодная добыча 2(Остаться в живых:Воскрешение)".
Действие картины переносится в больницу, что совсем не редкость для слэшеров (вспомнить хотя бы продолжения «Хэллоуина» и «Бугимена»). Не трудно догадаться, почему происходит именно так. Ну во-первых, куда прежде всего везут пострадавших? Да и сама по себе больничная атмосфера вызывает некоторое тревожное чувство, а уж если еще и имеет место наличие маньяка, то смесь получается взрывной.
Из всех героев первой серии осталась дишь Янике (такое произношение мне нравится гораздо больше) и именно ей предстоить вновь столкнуться с кошмаром заснеженных гор. Кстати заметить, отсутствие последних меня ну никак не порадовало. Будет, конечно несколько кадров, но хотелось бы гораздо больше. Откровенным минусом можно назвать некоторую «американизацию» поведения героев. Они совершают откровенно глупые поступки (не убедившись наверняка в смерти маньяка Янике бросается на помощь пострадавшей медсестре и потом еще удивляется, что тело его исчезло). Благо моментов таких не очень много и общую картину испортить они не смогли. Крови стало гораздо больше. Чего только стоит первой убийство. Если первая часть впечатлила меня именно из-за некоего саспенса при небольшом количестве убийств, то вторая часть запоминается именно эффектными сценами расправы маньяка над своими жертвами.
Если взять в совокупности то, что мы узнали о тайне рождения «снежного человека» (так его назвала Янике), увидев его стойкость и живучесть и то, что в скором времени стоит ждать третью часть, можно смело предположить, что на горизонте возникает еще одна франшиза, способная занять достойное место на полке рядом с такими фильмами, как «Хэллоуин», «Пятница 13» и так далее.

8 из 10
Полное имя : D:\Остаться.в.живых.Воскрешение-Fritt.vilt.II.(2008).BDRip.720p.mkv
Формат : Matroska
Версия формата : Version 2
Размер файла : 4,99 Гбайт
Продолжительность : 1 ч. 29 м.
Общий поток : 7968 Кбит/сек
Дата кодирования : UTC 2010-01-22 04:19:27
Программа кодирования : mkvmerge v2.9.8 ('C'est le bon') built on Aug 13 2009 12:49:06
Библиотека кодирования : libebml v0.7.7 + libmatroska v0.8.1

Видео
Идентификатор : 1
Формат : AVC
Формат/Информация : Advanced Video Codec
Профиль формата : High@L4.1
Параметр CABAC формата : Да
Параметр ReFrames формата : 4 кадра
Параметры GOP формата : M=3, N=24
Идентификатор кодека : V_MPEG4/ISO/AVC
Продолжительность : 1 ч. 29 м.
Битрейт : 5435 Кбит/сек
Ширина : 1280 пикс.
Высота : 516 пикс.
Соотношение сторон : 2,481
Частота кадров : 24,000 кадр/сек
Цветовое пространство : YUV
Подвыборка цветности : 4:2:0
Битовая глубина : 8 бит
Тип развёртки : Прогрессивная
Бит/(Пиксели*Кадры) : 0.343
Размер потока : 3,31 Гбайт (66%)
Библиотека кодирования : x264 core 67 r1139M 1024283
Настройки программы : cabac=1 / ref=4 / deblock=1:-1:-1 / analyse=0x3:0x113 / me=umh / subme=7 / psy_rd=1.0:0.0 / mixed_ref=1 / me_range=16 / chroma_me=1 / trellis=2 / 8x8dct=1 / cqm=0 / deadzone=21,11 / chroma_qp_offset=-2 / threads=6 / nr=0 / decimate=1 / mbaff=0 / bframes=3 / b_pyramid=0 / b_adapt=2 / b_bias=0 / direct=3 / wpredb=1 / keyint=250 / keyint_min=25 / scenecut=40 / rc=2pass / bitrate=5435 / ratetol=1.0 / qcomp=0.60 / qpmin=10 / qpmax=51 / qpstep=4 / cplxblur=20.0 / qblur=0.5 / vbv_maxrate=50000 / vbv_bufsize=50000 / ip_ratio=1.40 / pb_ratio=1.30 / aq=1:1.00
Язык : Norwegian

Аудио #1
Идентификатор : 2
Формат : AC-3
Формат/Информация : Audio Coding 3
Расширение режима : CM (complete main)
Идентификатор кодека : A_AC3
Продолжительность : 1 ч. 29 м.
Вид битрейта : Постоянный
Битрейт : 640 Кбит/сек
Каналы : 6 каналов
Расположение каналов : Front: L C R, Side: L R, LFE
Частота : 48,0 КГц
Битовая глубина : 16 бит
Метод сжатия : С потерями
Размер потока : 411 Мбайт (8%)
Заголовок : AVO [RussianGuy27] (AC3 DD 5.1 640 Kbps)
Язык : Russian

Аудио #2
Идентификатор : 3
Формат : AC-3
Формат/Информация : Audio Coding 3
Расширение режима : CM (complete main)
Идентификатор кодека : A_AC3
Продолжительность : 1 ч. 29 м.
Вид битрейта : Постоянный
Битрейт : 384 Кбит/сек
Каналы : 6 каналов
Расположение каналов : Front: L C R, Side: L R, LFE
Частота : 48,0 КГц
Битовая глубина : 16 бит
Метод сжатия : С потерями
Размер потока : 246 Мбайт (5%)
Заголовок : DVO (AC3 DD 5.1 384 Kbps)
Язык : Russian

Аудио #3
Идентификатор : 4
Формат : DTS
Формат/Информация : Digital Theater Systems
Идентификатор кодека : A_DTS
Продолжительность : 1 ч. 29 м.
Вид битрейта : Постоянный
Битрейт : 1510 Кбит/сек
Каналы : 6 каналов
Расположение каналов : Front: L C R, Side: L R, LFE
Частота : 48,0 КГц
Битовая глубина : 24 бит
Метод сжатия : С потерями
Размер потока : 969 Мбайт (19%)
Заголовок : Original (DTS 5.1 1536 Kbps)
Язык : Norwegian

Текст #1
Идентификатор : 5
Формат : UTF-8
Идентификатор кодека : S_TEXT/UTF8
Идентификатор кодека/Информация : UTF-8 Plain Text
Язык : English

Текст #2
Идентификатор : 6
Формат : UTF-8
Идентификатор кодека : S_TEXT/UTF8
Идентификатор кодека/Информация : UTF-8 Plain Text
Язык : Norwegian Bokmal

Текст #3
Идентификатор : 7
Формат : UTF-8
Идентификатор кодека : S_TEXT/UTF8
Идентификатор кодека/Информация : UTF-8 Plain Text
Язык : Danish

Текст #4
Идентификатор : 8
Формат : UTF-8
Идентификатор кодека : S_TEXT/UTF8
Идентификатор кодека/Информация : UTF-8 Plain Text
Язык : Finnish

Текст #5
Идентификатор : 9
Формат : UTF-8
Идентификатор кодека : S_TEXT/UTF8
Идентификатор кодека/Информация : UTF-8 Plain Text
Язык : Swedish

Меню
00:00:00.000 : en:00:00:00.000
00:07:39.625 : en:00:07:39.625
00:14:56.083 : en:00:14:56.083
00:20:31.542 : en:00:20:31.542
00:29:43.417 : en:00:29:43.417
00:35:38.583 : en:00:35:38.583
00:48:03.917 : en:00:48:03.917
00:52:24.583 : en:00:52:24.583
01:02:58.375 : en:01:02:58.375
01:07:06.542 : en:01:07:06.542
01:17:54.792 : en:01:17:54.792
01:25:22.042 : en:01:25:22.042
01:29:44.000 : en:01:29:44.000
Скриншоты:


Остаться в живых 3 / Fritt vilt III (2010) BDRip
Русское название: Остаться в живых 3
Оригинальное название: Fritt vilt III
Год выпуска: 2010
Производство: Fantefilm / Film i Väst (Норвегия)
Жанр: Ужасы, триллер, драма
Перевод: Авторский одноголосый, закадровый [RussianGuy27]
Субтитры: Вшитые отключаемые
Язык субтитров: Русский

Режиссер: Миккел Бренне Сандемус
Продюсер: Кристиан Синкеруд, Мартин Сандлэнд
Актеры: Пал Стокка, Джули Расти, Артур Бернинг, Стурла Руй, Терье Рейнс, Нилс Джонсон

Описание фильма:
Продолжение душераздирающей истории о резне, учиненной жестоким и кровожадным маньяком, среди холодных норвежских снегов. Выживет ли кто-нибудь из главных героев после новой встречи с серийным убийцей, орудующим ледорубом?



Дата мировой премьеры: 15 октября 2010

Продолжительность: 01:37:37
Качество видео: BDRip

Видеокодек: MPEG4_AVC / H.264
Размер кадра: 1280x544
Битрейт видео: ~4896 kbps, Бит/(Пиксели*Кадры): 0.293
Аудио 1: AC3 5.1, 448 kbps - Русский [Одноголосый - RussianGuy27]
Аудио 2: AC3 5.1, 1510 kbps - Норвежский [Оригинал]
Говорят, что часто замороженная еда, теряет вкус. Местная дичь таким законам не поддаётся. Вот заморозили добычу в третий раз, а она всё так же вкусна. Да и ещё лучше, чем была. Будто бы мясо стало моложе. О, да! Перед нами приквел. Сначала нас и вовсе забросят в начало начал, а после события перенесутся на дюжину лет вперёд… И вот. Перед нами снова компания подростков. Им не сидится дома, им хочется поехать туда, где ну совсем нечего им делать. Но им это не ведомо. Ими движет интерес. Интерес к событиям, которые когда произошли в…да-да…том самом отеле.
Фильм мало похож на слэшер. Хоть и действие теперь отдаёт не только Halloween’ом и the 13th Friday, но и эпопеей про Leatherface, действие в фильме довольно-таки занудное. Впрочем, всё это восполняется под конец. Где-то последние минут 20—25 заставляют понять, что время потрачено не зря. Ну и великолепная концовка. Браво!
Кроме занудства можно, пожалуй, придраться к некому копированию первой части. Ну и к никчёмному саундтреку. А так…

7,5 из 10
Полное имя : D:\Остаться.в.живых.3-Fritt.vilt.III.(2010).BDRip.720p.mkv
Формат : Matroska
Версия формата : Version 1
Размер файла : 4,68 Гбайт
Продолжительность : 1 ч. 37 м.
Общий поток : 6856 Кбит/сек
Дата кодирования : UTC 2011-03-06 08:51:22
Программа кодирования : mkvmerge v2.4.1 ('Use Me') built on Dec 5 2008 18:30:05
Библиотека кодирования : libebml v0.7.7 + libmatroska v0.8.1

Видео
Идентификатор : 1
Формат : AVC
Формат/Информация : Advanced Video Codec
Профиль формата : High@L4.1
Параметр CABAC формата : Да
Параметр ReFrames формата : 5 кадров
Идентификатор кодека : V_MPEG4/ISO/AVC
Продолжительность : 1 ч. 37 м.
Битрейт : 4896 Кбит/сек
Ширина : 1280 пикс.
Высота : 544 пикс.
Соотношение сторон : 2,35:1
Частота кадров : 24,000 кадр/сек
Цветовое пространство : YUV
Подвыборка цветности : 4:2:0
Битовая глубина : 8 бит
Тип развёртки : Прогрессивная
Бит/(Пиксели*Кадры) : 0.293
Размер потока : 3,25 Гбайт (69%)
Библиотека кодирования : x264 core 113 r1884 7313bb5
Настройки программы : cabac=1 / ref=5 / deblock=1:0:0 / analyse=0x3:0x133 / me=umh / subme=7 / psy=1 / psy_rd=1.00:0.00 / mixed_ref=1 / me_range=16 / chroma_me=1 / trellis=1 / 8x8dct=1 / cqm=0 / deadzone=21,11 / fast_pskip=0 / chroma_qp_offset=-2 / threads=9 / sliced_threads=0 / nr=0 / decimate=1 / interlaced=0 / constrained_intra=0 / bframes=3 / b_pyramid=2 / b_adapt=1 / b_bias=0 / direct=1 / weightb=1 / open_gop=0 / weightp=2 / keyint=250 / keyint_min=23 / scenecut=40 / intra_refresh=0 / rc_lookahead=40 / rc=2pass / mbtree=1 / bitrate=4896 / ratetol=1.0 / qcomp=0.60 / qpmin=0 / qpmax=69 / qpstep=4 / cplxblur=20.0 / qblur=0.5 / ip_ratio=1.40 / aq=1:1.00
Язык : Norwegian

Аудио #1
Идентификатор : 2
Формат : AC-3
Формат/Информация : Audio Coding 3
Расширение режима : CM (complete main)
Идентификатор кодека : A_AC3
Продолжительность : 1 ч. 37 м.
Вид битрейта : Постоянный
Битрейт : 448 Кбит/сек
Каналы : 6 каналов
Расположение каналов : Front: L C R, Side: L R, LFE
Частота : 48,0 КГц
Битовая глубина : 16 бит
Метод сжатия : С потерями
Размер потока : 313 Мбайт (7%)
Заголовок : RussianGuy27

Аудио #2
Идентификатор : 3
Формат : DTS
Формат/Информация : Digital Theater Systems
Идентификатор кодека : A_DTS
Продолжительность : 1 ч. 37 м.
Вид битрейта : Постоянный
Битрейт : 1510 Кбит/сек
Каналы : 6 каналов
Расположение каналов : Front: L C R, Side: L R, LFE
Частота : 48,0 КГц
Битовая глубина : 24 бит
Метод сжатия : С потерями
Размер потока : 1,03 Гбайт (22%)
Язык : Norwegian

Текст
Идентификатор : 4
Формат : UTF-8
Идентификатор кодека : S_TEXT/UTF8
Идентификатор кодека/Информация : UTF-8 Plain Text
Скриншоты:


Время раздачи: 24/7 (до 10 скачавших)


[NNM-Club.ru]_Ostat'sya.v.zhivyih.Antologiya-Fritt.vilt.Anthology.(2006-2010).720p.BDRip.torrent
 Торрент: Золотая раздача  Зарегистрирован
 
Зарегистрируйтесь и скачайте торрент!
73,3 KB
Free Leech
 Зарегистрирован:   07 Янв 2012 23:51:43
 Размер:   14,5 GB  (
 Рейтинг:   4,5 (Голосов: 16)
 Поблагодарили:   54
 Проверка:   Оформление проверено модератором 08 Янв 2012 01:43:55
Как cкачать  ·  Как раздать  ·  Правильно оформить  ·  Поднять ратио!  
L!vingstone
Стаж: 9 лет 10 мес.
Сообщений: 275
Ratio: 15,116
Поблагодарили: 2014
100%
Откуда: Плюк
у переводчиков названия настолько туго с фантазией?)
Bandit128
Стаж: 9 лет 8 мес.
Сообщений: 50
Ratio: 0,495
100%
russia.gif
Deepgreensun писал(а): Перейти к сообщению
у переводчиков названия настолько туго с фантазией?)


Перевод со шведского - (Бесплатные игры)
Bu44er
Стаж: 10 лет
Сообщений: 16
Ratio: 4,868
0%
Есть ещё другой фильм " остаться в живых"
coffease
Стаж: 9 лет 7 мес.
Сообщений: 222
Ratio: 11,436
Раздал: 17,51 TB
Поблагодарили: 2239
100%
Откуда: Киев
krevedko.png
поддержу раздачу!

_________________
Превосходно подготовленный человек редко познает горечь поражения! (с)
trancemaster
Стаж: 9 лет 3 мес.
Сообщений: 24
Ratio: 2,004
2.83%
Откуда: St.Petersburg
russia.gif
Где раздающие??
Топик был перенесен из форума Зарубежные Фильмы (HD) в форум Архив Видео


batonchik
bogdalek
Стаж: 9 лет 3 мес.
Сообщений: 29
Ratio: 26,587
8.11%
Дайте скорость..
ambakaput
Стаж: 9 лет 3 мес.
Сообщений: 34
Ratio: 33,861
32.24%
russia.gif
L!vingstone писал(а): Перейти к сообщению
у переводчиков названия настолько туго с фантазией?)

оригинальное название наиболее близко переводится как "потерялись" или "заблудились"
Dedok6
Стаж: 7 лет 2 мес.
Сообщений: 55
Ratio: 4,299
100%
russia.gif
Lelya_K
Дай раздачу.Плиз.
Показать сообщения:   
Начать новую тему   Ответить на тему    Торрент-трекер NNM-Club -> Архив торрентов -> Архив Видео Часовой пояс: GMT + 3
Страница 1 из 1